<?xml version="1.0" standalone="no"?>
<!DOCTYPE svg PUBLIC "-//W3C//DTD SVG 1.1//EN" "http://www.w3.org/Graphics/SVG/1.1/DTD/svg11.dtd">
<svg xmlns="http://www.w3.org/2000/svg">
<defs >
<font id="Raleway" horiz-adv-x="469" ><font-face
    font-family="Raleway"
    units-per-em="1000"
    panose-1="2 11 0 3 3 1 1 6 0 3"
    ascent="940"
    descent="-234"
    alphabetic="0" />
<glyph unicode=" " glyph-name="space" horiz-adv-x="251" />
<glyph unicode="!" glyph-name="exclam" horiz-adv-x="257" d="M85 240V717H173V240H85ZM85 0V124H173V0H85Z" />
<glyph unicode="&quot;" glyph-name="quotedbl" horiz-adv-x="312" d="M61 574V718H137V574H61ZM175 574V718H251V574H175Z" />
<glyph unicode="#" glyph-name="numbersign" horiz-adv-x="696" d="M657 447H523L480 269H613V201H464L415 0H342L392 201H224L175 0H102L152 201H39V269H168L211 447H83V511H227L275 710H348L299 511H467L515 710H588L539 511H657V447ZM408 269L451 447H283L240
269H408Z" />
<glyph unicode="$" glyph-name="dollar" horiz-adv-x="622" d="M509 561Q497 574 479 586T438 609T387 626T330 634V397L343 394Q398 382 442 367T518 328T566 272T583 191Q583 141 564 104T512 43T434 7T336 -7V-107H292V-6Q146 3 36 93L79 169Q94 154 116 139T166
110T228 88T297 75V314L282 318Q228 331 187 346T119 382T77 433T63 505Q63 553 80 590T127 654T200 696T292 714V815H336V714Q402 711 455 690T551 634L509 561ZM487 182Q487 208 477 226T446 259T397 285T330 306V74Q405 74 446 101T487 182ZM156 519Q156 494
164 476T190 445T234 423T297 404V634Q224 630 190 600T156 519Z" />
<glyph unicode="%" glyph-name="percent" horiz-adv-x="745" d="M197 428Q165 428 137 439T88 470T55 517T43 574Q43 604 55 631T88 677T137 708T197 720Q229 720 257 709T306 678T339 631T351 574Q351 544 339 517T306 471T257 440T197 428ZM197 476Q216 476
232 484T261 505T280 536T287 574Q287 594 280 612T260 643T232 664T197 672Q178 672 162 664T133 643T114 611T107 574Q107 554 114 536T133 505T162 484T197 476ZM548 -10Q516 -10 488 1T439 32T406 79T394 136Q394 166 406 193T439 239T488 270T548 282Q580
282 608 271T657 240T690 193T702 136Q702 106 690 79T657 33T608 2T548 -10ZM548 38Q567 38 583 46T612 67T631 98T638 136Q638 156 631 174T611 205T583 226T548 234Q529 234 513 226T484 205T465 173T458 136Q458 116 465 98T484 67T513 46T548 38ZM77 33L357
370L625 715L668 678L391 343L119 -5L77 33Z" />
<glyph unicode="&amp;" glyph-name="ampersand" horiz-adv-x="685" d="M561 0L487 77Q444 35 391 13T276 -10Q227 -10 185 5T112 46T64 109T46 188Q46 223 57 252T88 307T133 353T187 395Q162 422 145 444T118 485T102 522T97 559Q97 593 111 622T149 673T207
707T280 719Q316 719 347 709T402 680T439 634T453 574Q453 544 442 518T411 470T364 427T307 387L488 197Q507 233 517 275T528 366H601Q600 301 585 245T540 143L677 0H561ZM285 60Q330 60 369 78T439 128L237 341Q190 307 161 271T131 187Q131 157 144 133T178
93T227 69T285 60ZM178 561Q178 550 181 539T193 515T217 483T255 440Q306 474 339 504T372 572Q372 607 346 629T280 652Q235 652 207 626T178 561Z" />
<glyph unicode="&apos;" glyph-name="quotesingle" horiz-adv-x="186" d="M55 586V718H131V586H55Z" />
<glyph unicode="(" glyph-name="parenleft" horiz-adv-x="280" d="M41 346Q41 397 52 447T82 546T127 645T183 744L251 714Q232 685 210 642T168 549T136 446T123 343Q123 264 157 174T249 -8L184 -42Q121 52 81 150T41 346Z" />
<glyph unicode=")" glyph-name="parenright" horiz-adv-x="280" d="M239 346Q239 249 199 151T96 -42L31 -8Q89 83 123 173T157 343Q157 392 144 445T112 549T71 642T29 714L97 744Q127 694 152 645T197 547T228 447T239 346Z" />
<glyph unicode="*" glyph-name="asterisk" horiz-adv-x="330" d="M84 538L128 603L59 625L72 667L142 640L139 714H190L187 640L257 667L270 625L201 603L246 538L208 513L165 580L121 513L84 538Z" />
<glyph unicode="+" glyph-name="plus" horiz-adv-x="420" d="M368 391V319H250V191H170V319H52V391H170V519H250V391H368Z" />
<glyph unicode="," glyph-name="comma" horiz-adv-x="214" d="M48 -16Q55 -16 64 -12T73 8V112H146V-6Q146 -27 137 -41T114 -64T83 -77T48 -81V-16Z" />
<glyph unicode="-" glyph-name="hyphen" horiz-adv-x="421" d="M63 233V313H358V233H63Z" />
<glyph unicode="." glyph-name="period" horiz-adv-x="200" d="M63 0V112H137V0H63Z" />
<glyph unicode="/" glyph-name="slash" horiz-adv-x="634" d="M607 710L127 0H29L508 710H607Z" />
<glyph unicode="0" glyph-name="zero" horiz-adv-x="615" d="M561 293Q561 227 542 172T489 76T409 13T308 -10Q253 -10 207 12T127 75T74 171T55 293Q55 359 74 414T126 510T206 574T308 597Q362 597 408 574T489 511T542 415T561 293ZM472 293Q472 342 460 383T426
453T374 499T308 515Q271 515 241 499T189 454T155 383T143 293Q143 243 155 203T188 133T240 88T308 72Q344 72 374 88T426 133T460 202T472 293Z" />
<glyph unicode="1" glyph-name="one" horiz-adv-x="447" d="M425 80V0H66V80H208V470Q199 458 180 445T138 420T89 400T45 392V476Q67 476 94 488T145 517T187 549T208 571H298V80H425Z" />
<glyph unicode="2" glyph-name="two" horiz-adv-x="544" d="M48 0Q48 40 54 75T79 142T128 203T211 261Q241 277 272 292T328 325T370 363T387 410Q387 427 379 444T356 474T319 495T267 503Q237 503 213 495T169 474T136 447T113 422L56 486Q64 495 83 510T131
542T198 569T283 581Q329 581 366 569T428 534T468 483T482 420Q482 381 465 352T424 301T371 264T321 237Q299 226 272 211T219 176T176 132T152 80H493V0H48Z" />
<glyph unicode="3" glyph-name="three" horiz-adv-x="543" d="M359 236Q423 225 460 177T498 58Q498 12 481 -26T433 -91T357 -132T259 -147Q183 -147 126 -119T36 -38L95 21Q118 -20 157 -43T259 -67Q328 -67 367 -36T407 58Q407 121 365 158T241 196H215V270H243Q315
270 353 304T392 392Q392 445 355 471T262 497Q207 497 166 474T101 408L47 464Q60 489 82 509T134 545T198 568T271 576Q318 576 357 563T425 527T469 471T485 398Q485 368 477 341T452 292T412 256T359 236Z" />
<glyph unicode="4" glyph-name="four" horiz-adv-x="549" d="M342 -127V42H21V120L370 571H430V122H518V42H430V-127H342ZM112 122H351V435L112 122Z" />
<glyph unicode="5" glyph-name="five" horiz-adv-x="552" d="M283 314Q332 314 374 298T448 251T497 179T515 87Q515 34 496 -9T442 -84T362 -132T264 -149Q188 -149 127 -113T35 -17L90 31Q118 -15 164 -43T265 -71Q299 -71 328 -60T379 -28T413 22T425 86Q425
119 413 147T381 195T332 226T272 237Q229 237 192 218T130 164H51Q52 169 56 189T66 239T79 305T93 378Q110 464 131 571H476V490H196L153 264Q175 287 208 300T283 314Z" />
<glyph unicode="6" glyph-name="six" horiz-adv-x="606" d="M563 235Q563 184 544 140T490 62T409 9T309 -10Q252 -10 205 11T123 71T71 167T52 296Q52 401 71 479T125 610T209 689T318 715Q387 715 443 682T532 589L478 536Q456 583 413 610T317 638Q276 638
243 620T186 565T149 478T135 360Q157 412 206 443T318 474Q369 474 414 456T492 405T544 329T563 235ZM310 66Q344 66 375 79T429 116T465 169T479 235Q479 269 466 300T429 353T375 389T310 403Q275 403 245 390T191 354T155 300T141 235Q141 200 154 170T191
116T244 80T310 66Z" />
<glyph unicode="7" glyph-name="seven" horiz-adv-x="557" d="M408 502H43V583H547L190 -127H90L408 502Z" />
<glyph unicode="8" glyph-name="eight" horiz-adv-x="599" d="M549 201Q549 153 529 115T474 49T394 7T297 -8Q244 -8 199 8T120 53T68 121T49 205Q49 238 61 266T91 316T134 354T182 380Q160 389 140 403T105 436T82 477T73 524Q73 569 93 603T146 662T219 698T299
710Q339 710 379 698T452 663T505 605T526 525Q526 475 493 437T415 380Q442 369 466 352T509 313T538 262T549 201ZM460 207Q460 239 446 264T408 307T356 334T298 343Q268 343 240 334T189 306T153 263T139 206Q139 174 153 149T191 107T242 81T300 71Q330 71
358 81T409 109T446 152T460 207ZM162 521Q162 494 174 474T207 439T251 418T299 411Q323 411 347 418T391 440T423 475T436 523Q436 548 425 568T394 602T350 623T298 631Q271 631 247 624T204 602T174 567T162 521Z" />
<glyph unicode="9" glyph-name="nine" horiz-adv-x="589" d="M36 326Q36 377 55 421T109 499T190 552T290 571Q347 571 394 550T476 490T528 394T547 265Q547 160 528 82T474 -49T390 -128T281 -154Q212 -154 156 -121T67 -28L121 25Q143 -22 186 -49T282 -77Q364
-77 413 -4T464 201Q442 149 393 118T281 87Q230 87 185 105T107 156T55 232T36 326ZM289 495Q254 495 224 482T170 445T134 392T120 326Q120 291 133 261T170 208T223 172T289 158Q324 158 354 171T408 207T444 260T458 326Q458 360 445 391T408 445T354 481T289
495Z" />
<glyph unicode=":" glyph-name="colon" horiz-adv-x="211" d="M69 406V518H142V406H69ZM69 0V112H142V0H69Z" />
<glyph unicode=";" glyph-name="semicolon" horiz-adv-x="223" d="M77 406V518H150V406H77ZM52 -16Q59 -16 68 -12T77 8V112H150V-6Q150 -27 141 -41T118 -64T87 -77T52 -81V-16Z" />
<glyph unicode="&lt;" glyph-name="less" horiz-adv-x="507" d="M33 280L453 533V439L161 259L453 82V-16L33 234V280Z" />
<glyph unicode="=" glyph-name="equal" horiz-adv-x="440" d="M68 179V239H373V179H68ZM68 313V373H373V313H68Z" />
<glyph unicode="&gt;" glyph-name="greater" horiz-adv-x="507" d="M474 234L54 -16V82L346 259L54 439V533L474 280V234Z" />
<glyph unicode="?" glyph-name="question" horiz-adv-x="482" d="M145 211Q145 265 164 305T229 375Q247 387 270 400T315 430T350 472T365 531Q365 559 355 580T327 616T288 638T242 646Q217 646 195 639T153 618T119 588T94 551L35 590Q48 621 70 645T120 685T179
710T244 719Q281 719 317 708T381 672T426 612T443 527Q443 489 433 462T405 415T365 380T317 351Q299 341 281 330T250 304T228 266T219 211H145ZM147 0V116H221V0H147Z" />
<glyph unicode="@" glyph-name="at" horiz-adv-x="829" d="M421 603Q495 603 561 576T678 500T758 380T788 222Q788 208 787 185T780 135T766 82T739 33T698 -2T639 -16Q613 -16 597 -9T572 11T558 40T552 73Q523 43 479 23T382 2Q309 2 270 40T230 138Q230 177
246 204T290 247T350 270T417 277Q460 277 492 269T540 254Q540 287 535 314T516 361T479 392T419 403Q379 403 344 391T281 357L261 406Q297 430 338 443T427 457Q485 457 519 438T570 389T591 323T596 251V132Q596 110 597 91T604 58T619 36T647 28Q677 28 696
49T726 100T742 164T746 224Q746 296 722 357T653 465T549 537T419 563Q350 563 290 538T186 469T116 364T90 230Q90 160 114 99T181 -7T283 -79T412 -106Q457 -106 493 -96T566 -68L580 -106Q539 -126 497 -136T411 -146Q336 -146 270 -118T155 -40T77 79T48 230Q48
316 79 385T161 502T280 577T421 603ZM478 76Q517 94 528 119T539 171V208Q526 210 494 220T416 230Q390 230 367 226T326 211T298 184T287 142Q287 104 314 79T386 54Q410 54 434 60T478 76Z" />
<glyph unicode="A" glyph-name="A" horiz-adv-x="678" d="M11 0L303 710H377L668 0H572L488 208H190L107 0H11ZM340 606L208 278H468L340 606Z" />
<glyph unicode="B" glyph-name="B" horiz-adv-x="672" d="M630 183Q630 142 614 108T569 50T503 13T422 0H85V710H438Q475 710 505 694T556 653T588 595T600 529Q600 476 574 431T498 364Q559 346 594 298T630 183ZM539 199Q539 223 531 245T508 285T473 312T429
322H175V78H422Q447 78 468 88T505 114T530 153T539 199ZM175 632V395H401Q425 395 445 404T479 430T502 467T511 513Q511 538 503 560T482 598T449 623T407 632H175Z" />
<glyph unicode="C" glyph-name="C" horiz-adv-x="683" d="M40 360Q40 424 62 487T128 601T235 683T378 714Q473 714 541 671T642 559L571 513Q555 547 533 570T484 607T429 627T374 633Q315 633 270 609T193 545T147 456T131 356Q131 300 149 250T201 160T279
98T377 75Q405 75 434 82T491 104T541 143T580 200L655 159Q638 119 608 89T539 37T457 5T373 -6Q300 -6 239 26T134 109T65 226T40 360Z" />
<glyph unicode="D" glyph-name="D" horiz-adv-x="718" d="M85 0V710H331Q416 710 480 682T588 606T652 494T674 356Q674 275 650 210T581 98T473 26T331 0H85ZM583 356Q583 416 567 466T518 553T438 609T331 630H175V80H331Q392 80 439 101T518 159T566 246T583 356Z" />
<glyph unicode="E" glyph-name="E" horiz-adv-x="610" d="M567 80V0H85V710H558V630H175V400H508V325H175V80H567Z" />
<glyph unicode="F" glyph-name="F" horiz-adv-x="581" d="M85 0V710H554V630H175V393H494V318H175V0H85Z" />
<glyph unicode="G" glyph-name="G" horiz-adv-x="718" d="M588 96Q494 -5 372 -5Q301 -5 241 26T136 107T67 223T41 357Q41 429 66 493T135 607T240 686T372 715Q475 715 541 672T643 560L574 512Q542 574 489 604T370 634Q316 634 272 611T197 549T149 460T132
355Q132 298 151 248T203 159T281 98T379 76Q495 76 588 188V286H435V354H664V0H588V96Z" />
<glyph unicode="H" glyph-name="H" horiz-adv-x="741" d="M656 710V0H566V323H175V0H85V710H175V403H566V710H656Z" />
<glyph unicode="I" glyph-name="I" horiz-adv-x="260" d="M85 0V709H175V0H85Z" />
<glyph unicode="J" glyph-name="J" horiz-adv-x="489" d="M39 106Q59 92 93 81T170 70Q221 70 251 88T296 141T317 229T322 349V709H412V349Q412 268 405 202T372 88T299 15T170 -11Q80 -11 16 33L39 106Z" />
<glyph unicode="K" glyph-name="K" horiz-adv-x="649" d="M85 0V709H175V317L541 710H638L353 397L654 0H556L298 345L175 217V0H85Z" />
<glyph unicode="L" glyph-name="L" horiz-adv-x="590" d="M85 0V710H175V80H571V0H85Z" />
<glyph unicode="M" glyph-name="M" horiz-adv-x="874" d="M699 0V549L463 128H412L175 549V0H85V710H180L437 249L695 710H789V0H699Z" />
<glyph unicode="N" glyph-name="N" horiz-adv-x="770" d="M175 542V0H85V710H155L595 157V709H685V0H609L175 542Z" />
<glyph unicode="O" glyph-name="O" horiz-adv-x="751" d="M375 -5Q300 -5 239 25T133 106T65 222T41 355Q41 426 66 491T137 606T243 685T377 715Q452 715 513 684T618 601T686 486T710 354Q710 283 685 218T615 104T509 25T375 -5ZM132 355Q132 301 149 251T199
161T276 99T376 76Q433 76 478 100T554 164T602 254T619 355Q619 409 602 459T552 548T475 610T376 633Q319 633 274 609T198 546T149 457T132 355Z" />
<glyph unicode="P" glyph-name="P" horiz-adv-x="621" d="M85 0V710H381Q428 710 467 691T535 639T580 566T596 483Q596 439 581 398T539 325T473 274T387 255H175V0H85ZM175 335H382Q410 335 432 346T471 378T496 426T505 483Q505 514 495 541T467 588T426 619T376
630H175V335Z" />
<glyph unicode="Q" glyph-name="Q" horiz-adv-x="752" d="M565 58Q525 29 477 12T375 -5Q300 -5 239 26T133 107T65 222T41 355Q41 426 66 491T137 606T243 685T377 715Q452 715 513 684T618 601T686 486T710 354Q710 282 685 218T614 103L703 0H615L565 58ZM376
76Q415 76 449 88T511 121L416 232H504L558 169Q587 208 603 256T619 355Q619 409 602 459T552 549T475 611T376 634Q319 634 274 610T198 547T149 457T132 355Q132 301 149 251T199 161T276 99T376 76Z" />
<glyph unicode="R" glyph-name="R" horiz-adv-x="664" d="M85 0V710H389Q436 710 475 691T543 639T588 566T604 483Q604 446 594 412T564 349T517 301T455 272L627 0H525L363 255H175V0H85ZM175 335H390Q418 335 440 347T479 379T504 427T513 483Q513 513 503
539T475 586T434 618T384 630H175V335Z" />
<glyph unicode="S" glyph-name="S" horiz-adv-x="613" d="M504 561Q492 575 472 588T427 611T373 628T311 635Q228 635 190 604T151 519Q151 490 162 471T196 439T255 415T338 394Q393 382 437 367T513 328T561 272T578 191Q578 140 558 103T504 41T422 5T320
-7Q238 -7 165 18T31 93L74 169Q90 152 115 135T173 105T243 83T322 74Q398 74 440 101T482 182Q482 212 469 232T429 268T365 294T277 318Q223 331 182 346T114 382T72 433T58 505Q58 556 77 595T130 661T211 701T313 715Q385 715 443 693T546 634L504 561Z" />
<glyph unicode="T" glyph-name="T" horiz-adv-x="616" d="M598 630H353V0H263V630H18V710H598V630Z" />
<glyph unicode="U" glyph-name="U" horiz-adv-x="753" d="M376 76Q438 76 479 100T544 162T579 250T589 351V710H679V351Q679 279 663 215T610 101T517 24T377 -5Q292 -5 234 25T141 104T90 218T74 351V710H164V351Q164 298 174 249T209 161T274 100T376 76Z" />
<glyph unicode="V" glyph-name="V" horiz-adv-x="676" d="M103 710L338 113L572 710H667L377 0H299L8 710H103Z" />
<glyph unicode="W" glyph-name="W" horiz-adv-x="1048" d="M344 706H429L523 459L618 706H703L580 397L702 104L942 710H1040L743 0H665L524 335L382 0H304L8 710H105L346 104L467 397L344 706Z" />
<glyph unicode="X" glyph-name="X" horiz-adv-x="635" d="M102 710L318 414L534 710H633L366 350L625 0H526L318 286L110 0H10L269 350L2 710H102Z" />
<glyph unicode="Y" glyph-name="Y" horiz-adv-x="637" d="M103 710L318 340L535 710H633L363 259V0H273V261L4 710H103Z" />
<glyph unicode="Z" glyph-name="Z" horiz-adv-x="624" d="M28 70L486 630H37V710H591V640L141 80H591V0H28V70Z" />
<glyph unicode="[" glyph-name="bracketleft" horiz-adv-x="264" d="M80 -40V740H220V668H162V32H220V-40H80Z" />
<glyph unicode="\" glyph-name="backslash" horiz-adv-x="590" d="M126 710L561 0H463L27 710H126Z" />
<glyph unicode="]" glyph-name="bracketright" horiz-adv-x="264" d="M44 -40V32H102V668H44V740H184V-40H44Z" />
<glyph unicode="^" glyph-name="asciicircum" horiz-adv-x="555" d="M43 303L241 710H315L512 303H437L278 631L116 303H43Z" />
<glyph unicode="_" glyph-name="underscore" horiz-adv-x="405" d="M14 -80V0H391V-80H14Z" />
<glyph unicode="`" glyph-name="grave" horiz-adv-x="232" d="M48 730H135L194 629L137 609L48 730Z" />
<glyph unicode="a" glyph-name="a" horiz-adv-x="557" d="M210 -10Q171 -10 138 2T81 36T44 87T30 150Q30 187 46 217T91 269T161 302T250 314Q288 314 327 307T396 288V330Q396 394 360 430T258 467Q179 467 92 406L63 463Q114 497 164 514T268 531Q368 531 426
476T484 321V108Q484 77 512 76V0Q502 -2 493 -3T476 -4Q454 -4 433 8T410 49L408 86Q390 62 367 44T318 14T265 -4T210 -10ZM232 56Q274 56 314 74T377 118Q396 140 396 159V236Q365 248 331 254T264 261Q196 261 155 234T114 158Q114 138 122 120T145 87T182
65T232 56Z" />
<glyph unicode="b" glyph-name="b" horiz-adv-x="621" d="M337 -10Q276 -10 226 20T147 98V0H69V730H157V418Q190 469 238 500T350 531Q404 531 447 508T520 448T567 361T584 259Q584 204 565 155T513 70T435 12T337 -10ZM315 66Q354 66 387 82T444 125T481 186T494
259Q494 297 482 332T447 395T393 438T323 455Q295 455 270 445T224 419T186 380T157 333V182Q162 157 178 136T217 100T265 75T315 66Z" />
<glyph unicode="c" glyph-name="c" horiz-adv-x="554" d="M36 262Q36 317 55 366T109 451T192 509T301 531Q379 531 435 497T521 404L435 377Q415 414 379 434T299 455Q263 455 231 441T176 400T140 339T126 262Q126 221 140 185T177 123T232 81T300 66Q323 66
345 72T386 90T419 115T439 147L525 121Q513 92 492 68T441 27T377 0T302 -10Q243 -10 194 12T110 71T56 157T36 262Z" />
<glyph unicode="d" glyph-name="d" horiz-adv-x="631" d="M285 -10Q231 -10 185 12T106 71T55 157T36 260Q36 315 53 364T102 451T177 509T273 531Q336 531 385 498T464 418V730H552V108Q552 77 580 76V0Q569 -2 561 -3T545 -4Q515 -4 497 11T478 49L476 98Q445
47 394 19T285 -10ZM306 66Q330 66 355 75T403 100T442 137T464 183V333Q455 358 437 380T397 419T349 445T298 455Q259 455 228 439T174 395T139 332T127 259Q127 220 141 185T179 123T235 82T306 66Z" />
<glyph unicode="e" glyph-name="e" horiz-adv-x="591" d="M302 -10Q243 -10 194 11T110 70T56 156T36 261Q36 316 55 365T110 451T195 509T303 531Q362 531 410 509T493 451T545 366T564 265Q564 254 564 245T562 231H129Q132 192 147 160T186 105T240 69T305
56Q329 56 352 62T395 80T430 107T454 143L530 122Q517 93 495 69T443 28T377 0T302 -10ZM481 296Q478 333 463 364T424 418T369 452T303 465Q268 465 237 453T183 418T145 364T127 296H481Z" />
<glyph unicode="f" glyph-name="f" horiz-adv-x="356" d="M99 0V392H28V461H99V533Q99 630 142 685T259 740Q290 740 320 732T374 708L352 643Q338 653 318 659T277 665Q233 665 210 632T187 536V461H326V392H187V0H99Z" />
<glyph unicode="g" glyph-name="g" horiz-adv-x="621" d="M278 -6Q225 -6 181 16T104 75T55 160T37 260Q37 315 54 364T104 451T180 509T279 531Q345 531 393 499T474 418V522H552V6Q552 -50 531 -92T474 -164T390 -208T286 -223Q197 -223 142 -193T49 -108L100
-63Q131 -109 180 -132T286 -155Q322 -155 354 -145T411 -115T449 -65T464 6V98Q449 74 429 55T384 22T333 1T278 -6ZM305 66Q333 66 359 76T407 102T444 140T464 183V333Q453 360 436 382T396 420T349 446T297 455Q257 455 226 438T172 393T138 330T126 258Q126
219 140 184T178 123T234 82T305 66Z" />
<glyph unicode="h" glyph-name="h" horiz-adv-x="586" d="M522 0H434V292Q434 373 406 412T324 452Q298 452 272 442T224 413T184 370T157 315V0H69V730H157V410Q188 467 241 499T357 531Q403 531 435 514T486 468T513 399T522 312V0Z" />
<glyph unicode="i" glyph-name="i" horiz-adv-x="226" d="M69 0V522H157V0H69ZM69 620V730H157V620H69Z" />
<glyph unicode="j" glyph-name="j" horiz-adv-x="226" d="M-5 -186Q-40 -186 -70 -176T-125 -144L-84 -85Q-70 -98 -52 -103T-15 -108Q1 -108 16 -102T43 -84T62 -57T69 -23V522H157V-17Q157 -54 144 -85T108 -138T56 -173T-5 -186ZM69 620V730H157V620H69Z" />
<glyph unicode="k" glyph-name="k" horiz-adv-x="536" d="M437 0L257 255L157 161V0H69V730H157V250L425 521H522L314 305L532 0H437Z" />
<glyph unicode="l" glyph-name="l" horiz-adv-x="280" d="M71 730H159V135Q159 106 174 90T218 73Q229 73 244 76T272 85L286 14Q264 5 234 -1T181 -7Q130 -7 101 22T71 103V730Z" />
<glyph unicode="m" glyph-name="m" horiz-adv-x="920" d="M856 0H768V292Q768 374 742 413T663 452Q609 452 567 414T506 314V0H418V292Q418 376 392 414T314 452Q261 452 218 415T157 315V0H69V522H149V410Q181 468 232 499T347 531Q413 531 451 496T499 404Q569
531 698 531Q743 531 773 515T822 469T848 399T856 312V0Z" />
<glyph unicode="n" glyph-name="n" horiz-adv-x="586" d="M522 0H434V292Q434 376 409 414T331 452Q304 452 277 442T226 413T184 370T157 315V0H69V522H149V410Q180 465 238 498T366 531Q411 531 441 515T489 469T514 399T522 312V0Z" />
<glyph unicode="o" glyph-name="o" horiz-adv-x="598" d="M299 -10Q240 -10 192 12T109 71T55 157T36 260Q36 315 55 364T109 450T192 509T299 531Q357 531 406 509T489 450T543 364T563 260Q563 206 544 157T490 71T407 12T299 -10ZM126 259Q126 218 139 183T176
122T231 81T299 66Q335 66 366 81T422 122T459 184T473 261Q473 301 460 336T422 398T367 440T299 455Q263 455 232 440T177 398T140 336T126 259Z" />
<glyph unicode="p" glyph-name="p" horiz-adv-x="620" d="M350 -10Q285 -10 236 22T157 103V-213H69V522H147V424Q178 472 227 501T337 531Q391 531 436 509T514 450T565 363T584 261Q584 205 567 156T519 70T445 12T350 -10ZM323 66Q362 66 393 82T447 126T482
189T494 261Q494 300 480 335T442 397T386 439T315 455Q291 455 266 446T218 421T179 384T157 338V189Q168 163 185 141T224 102T271 76T323 66Z" />
<glyph unicode="q" glyph-name="q" horiz-adv-x="620" d="M270 -10Q218 -10 175 12T101 71T53 158T36 261Q36 316 55 365T107 451T186 509T283 531Q344 531 394 501T473 423V522H551V-101Q551 -132 579 -133V-209Q559 -212 537 -212Q506 -212 485 -193T463 -142V103Q391
-10 270 -10ZM300 66Q356 66 396 98T463 178V328Q458 353 442 376T404 417T355 444T302 455Q263 455 231 439T176 395T139 332T126 259Q126 220 139 185T175 123T230 82T300 66Z" />
<glyph unicode="r" glyph-name="r" horiz-adv-x="362" d="M345 445Q279 443 229 411T157 322V0H69V522H151V401Q178 455 222 490T316 526Q326 526 333 526T345 525V445Z" />
<glyph unicode="s" glyph-name="s" horiz-adv-x="493" d="M254 -10Q191 -10 130 9T25 66L63 125Q109 90 155 73T252 55Q309 55 342 77T376 141Q376 160 367 173T340 197T294 215T229 232Q182 244 148 255T92 281T60 317T50 369Q50 408 65 438T108 489T171 520T250
531Q309 531 360 512T446 462L406 409Q373 438 332 452T248 467Q200 467 167 447T133 381Q133 363 139 351T161 330T199 314T256 299Q308 287 346 275T410 245T448 205T461 149Q461 76 405 33T254 -10Z" />
<glyph unicode="t" glyph-name="t" horiz-adv-x="347" d="M340 26Q332 22 319 17T290 6T254 -3T213 -7Q165 -7 130 19T95 102V453H24V522H95V696H183V522H300V453H183V129Q185 100 202 87T242 74Q268 74 289 82T319 96L340 26Z" />
<glyph unicode="u" glyph-name="u" horiz-adv-x="603" d="M230 -10Q148 -10 106 45T64 209V522H152V226Q152 66 263 66Q317 66 364 100T435 195V522H523V108Q523 77 551 76V0Q540 -2 532 -3T516 -4Q486 -4 469 10T450 49L447 112Q412 53 355 22T230 -10Z" />
<glyph unicode="v" glyph-name="v" horiz-adv-x="534" d="M220 0L14 522H105L270 77L436 522H520L314 0H220Z" />
<glyph unicode="w" glyph-name="w" horiz-adv-x="824" d="M727 522H812L590 0H517L412 255L308 0H235L13 522H97L277 87L365 304L275 521H348L412 354L476 521H549L460 304L548 87L727 522Z" />
<glyph unicode="x" glyph-name="x" horiz-adv-x="509" d="M103 522L246 330L254 314L263 330L405 522H498L303 260L499 0H406L263 191L254 206L246 191L103 0H10L206 260L11 522H103Z" />
<glyph unicode="y" glyph-name="y" horiz-adv-x="543" d="M92 -143Q119 -146 140 -146Q149 -146 157 -142T175 -123T198 -79T230 0L9 522H100L278 79L440 522H524L268 -137Q250 -184 216 -204T136 -225Q125 -225 114 -224T92 -220V-143Z" />
<glyph unicode="z" glyph-name="z" horiz-adv-x="487" d="M27 57L361 458H36V522H455V465L123 64H456V0H27V57Z" />
<glyph unicode="{" glyph-name="braceleft" horiz-adv-x="269" d="M171 668V424Q171 410 165 392T142 360Q157 346 164 328T171 296V41H226V-31H114Q106 -31 99 -25T91 -1V270Q91 292 80 309T49 329V393Q59 393 67 399T80 414T88 432T91 450V710Q91 729 100 734T114
740H226V668H171Z" />
<glyph unicode="|" glyph-name="bar" horiz-adv-x="232" d="M78 -130V775H154V-130H78Z" />
<glyph unicode="}" glyph-name="braceright" horiz-adv-x="269" d="M44 668V740H156Q161 740 170 735T179 710V450Q179 442 181 433T189 414T202 399T221 393V329Q201 326 190 309T179 270V-1Q179 -18 171 -24T156 -31H44V41H99V296Q99 310 105 328T128 360Q112
374 106 392T99 424V668H44Z" />
<glyph unicode="~" glyph-name="asciitilde" horiz-adv-x="524" d="M62 237Q62 243 68 261T88 298T124 333T179 349Q203 349 224 340T264 321T303 301T344 292Q363 292 376 299T398 316T409 333T413 344H465Q465 341 459 324T439 288T402 253T343 237Q317 237
296 245T254 264T216 284T178 293Q160 293 148 285T128 266T117 247T114 237H62V237Z" />
<glyph unicode="&#xa0;" glyph-name="uni00A0" horiz-adv-x="251" />
<glyph unicode="&#xa1;" glyph-name="exclamdown" horiz-adv-x="258" d="M173 474V-3H85V474H173ZM173 714V590H85V714H173Z" />
<glyph unicode="&#xa2;" glyph-name="cent" horiz-adv-x="576" d="M279 -120V-9Q228 -5 185 19T111 81T63 164T45 258Q45 309 61 355T107 438T180 499T279 530V645H323V530Q396 528 448 495T530 404L445 377Q425 413 393 431T323 452V68Q341 69 360 75T398 92T430
116T449 147L535 121Q522 88 498 64T443 23T382 -2T323 -10V-120H279ZM135 258Q135 225 145 194T175 138T221 96T279 72V449Q245 445 218 427T173 383T145 324T135 258Z" />
<glyph unicode="&#xa3;" glyph-name="sterling" horiz-adv-x="518" d="M54 375H141Q131 396 120 416T100 456T84 497T78 542Q78 578 93 609T133 664T193 701T267 715Q324 715 374 687T456 610L407 556Q383 595 344 618T265 642Q242 642 223 634T190 611T167 577T159
535Q159 515 165 496T181 457T202 417T224 375H403V307H246Q248 296 249 286T250 264Q250 215 228 171T152 69Q189 79 226 79Q266 79 298 70T366 61Q386 61 405 65T451 79L473 12Q447 -1 419 -8T362 -15Q339 -15 319 -11T277 -3T235 6T190 10Q165 10 134 5T76 -8L54
56Q118 117 145 164T173 260Q173 284 167 307H54V375Z" />
<glyph unicode="&#xa5;" glyph-name="yen" horiz-adv-x="689" d="M455 377H536V317H422L388 259V231H537V171H388V0H298V171H151V231H298V261L266 317H151V377H234L30 710H128L343 340L560 710H659L455 377Z" />
<glyph unicode="&#xa6;" glyph-name="brokenbar" horiz-adv-x="236" d="M156 273V-130H80V273H156ZM156 775V372H80V775H156Z" />
<glyph unicode="&#xa7;" glyph-name="section" horiz-adv-x="518" d="M430 201Q473 172 473 97Q473 49 453 14T403 -43T336 -77T265 -88Q229 -88 198 -79T141 -56T95 -25T61 7L118 61Q153 27 187 12T262 -4Q284 -4 305 2T344 21T371 52T382 94Q382 119 372 134T346
158T309 169T270 174Q225 177 189 188T126 221T86 272T71 341Q71 369 78 390T95 423Q76 438 62 468T47 538Q47 576 64 608T108 664T172 701T247 715Q286 715 316 706T370 681T411 648T440 611L372 579Q355 610 321 623T252 636Q229 636 209 630T172 610T146 579T136
539Q136 513 145 496T169 469T206 454T253 449Q289 449 326 441T392 413T439 364T458 290Q458 261 450 238T430 201ZM157 330Q157 288 178 270T230 245T293 236T348 225Q360 235 367 252T374 288Q374 313 363 330T334 358T296 372T256 377Q210 377 179 390Q169
380 163 364T157 330Z" />
<glyph unicode="&#xa8;" glyph-name="dieresis" horiz-adv-x="368" d="M66 624V726H140V624H66ZM228 624V726H302V624H228Z" />
<glyph unicode="&#xa9;" glyph-name="copyright" horiz-adv-x="839" d="M418 -7Q338 -7 271 20T154 96T77 211T49 355Q49 432 77 498T154 612T270 687T418 715Q498 715 566 688T685 612T763 498T791 355Q791 277 763 211T685 97T567 21T418 -7ZM418 31Q488 31
548 54T654 120T724 222T750 353Q750 422 725 481T656 584T551 652T418 677Q347 677 287 653T183 585T114 482T89 354Q89 285 114 226T183 124T287 56T418 31ZM426 121Q377 121 334 138T258 186T206 260T187 355Q187 398 201 440T245 515T318 569T421 590Q491 590
544 560T622 474L537 447Q528 467 514 480T484 500T452 511T421 514Q385 514 358 501T313 465T286 414T277 355Q277 317 290 288T325 238T372 208T423 197Q458 197 492 215T543 267L628 241Q620 221 602 200T558 161T499 132T426 121Z" />
<glyph unicode="&#xaa;" glyph-name="ordfeminine" horiz-adv-x="437" d="M164 344Q139 344 117 352T79 376T54 411T45 455Q45 505 86 536T194 567Q220 567 245 563T290 550V575Q290 615 267 638T201 661Q173 661 146 651T88 620L65 665Q135 711 207 711Q279 711
320 674T361 567V436Q361 413 382 412V350Q367 347 355 347Q331 347 317 357T302 386L301 409Q276 377 241 361T164 344ZM184 397Q203 397 222 402T256 417T280 437T290 461V509Q271 517 249 520T206 524Q164 524 138 507T112 461Q112 434 132 416T184 397Z" />
<glyph unicode="&#xab;" glyph-name="guillemotleft" horiz-adv-x="599" d="M42 280L295 461V387L113 259L295 134V60L42 234V280ZM284 280L537 461V387L355 259L537 134V60L284 234V280Z" />
<glyph unicode="&#xac;" glyph-name="logicalnot" horiz-adv-x="597" d="M528 375V120H452V295H74V375H528Z" />
<glyph unicode="&#xad;" glyph-name="uni00AD" horiz-adv-x="580" d="M63 233V313H517V233H63Z" />
<glyph unicode="&#xae;" glyph-name="registered" horiz-adv-x="839" d="M419 -7Q339 -7 272 20T155 96T77 211T49 355Q49 432 77 498T154 612T271 687T419 715Q499 715 567 688T685 612T763 498T791 355Q791 277 763 211T685 97T567 21T419 -7ZM419 30Q489 30
549 53T653 120T723 222T749 354Q749 423 724 482T655 584T551 652T419 677Q348 677 288 653T184 585T116 482T91 355Q91 286 115 227T183 124T287 55T419 30ZM264 579H456Q486 579 511 567T554 534T582 487T592 435Q592 388 566 351T496 302L605 130H532L430 292H329V130H264V579ZM453
349Q489 349 508 373T528 435Q528 473 506 496T450 520H329V349H453Z" />
<glyph unicode="&#xaf;" glyph-name="overscore" horiz-adv-x="403" d="M56 654V712H348V654H56Z" />
<glyph unicode="&#xb0;" glyph-name="degree" horiz-adv-x="273" d="M47 637Q47 674 72 699T136 724Q174 724 199 699T225 637Q225 597 200 572T136 546Q98 546 73 572T47 637ZM106 665Q94 651 94 635Q94 618 106 606Q119 593 136 593Q155 593 166 606Q178 618
178 635Q178 651 166 665Q155 677 136 677Q118 677 106 665Z" />
<glyph unicode="&#xb1;" glyph-name="plusminus" horiz-adv-x="464" d="M66 51V123H398V51H66ZM398 404V332H272V196H192V332H66V404H192V540H272V404H398Z" />
<glyph unicode="&#xb2;" glyph-name="twosuperior" horiz-adv-x="398" d="M35 320Q35 359 42 388T65 440T105 478T162 508Q185 517 209 525T253 545T285 572T298 609Q298 638 274 657T201 677Q153 677 122 659T75 624L39 663Q44 670 57 681T91 704T142 723T209
731Q284 731 322 697T360 608Q360 576 346 555T311 519T266 495T222 480Q191 470 172 457T141 430T126 402T122 374H353V320H35Z" />
<glyph unicode="&#xb3;" glyph-name="threesuperior" horiz-adv-x="397" d="M192 314Q129 314 87 337T34 400L66 438Q67 427 76 416T102 394T141 377T191 370Q238 370 270 387T303 435Q303 468 263 485T154 503H131V554H154Q217 554 253 569T289 616Q289 646 259
663T189 680Q148 680 119 665T74 626L37 669Q57 698 99 714T189 731Q223 731 252 723T302 699T336 664T348 619Q348 584 325 562T256 531Q304 524 331 495T359 427Q359 400 346 379T309 343T255 322T192 314Z" />
<glyph unicode="&#xb4;" glyph-name="acute" horiz-adv-x="232" d="M106 609L48 629L106 730H194L106 609Z" />
<glyph unicode="&#xb5;" glyph-name="mu" horiz-adv-x="610" d="M77 522H165V226Q165 66 278 66Q304 66 330 75T378 100T419 141T449 195V522H537V108Q537 77 565 76V0Q554 -2 545 -3T529 -4Q500 -4 483 10T464 49L461 112Q449 88 429 66T385 27T332 0T273 -10Q227
-10 199 12T160 67V-212H77V522Z" />
<glyph unicode="&#xb6;" glyph-name="paragraph" horiz-adv-x="615" d="M36 465Q36 581 110 645T318 710H575V642H505V-80H429V224H362V-80H286V224Q229 225 183 242T104 290T54 365T36 465ZM111 467Q111 424 125 393T163 339T218 306T286 292V642Q201 640 156
594T111 467ZM429 642H362V292H429V642Z" />
<glyph unicode="&#xb7;" glyph-name="middot" horiz-adv-x="200" d="M63 245V369H137V245H63Z" />
<glyph unicode="&#xb8;" glyph-name="cedilla" horiz-adv-x="296" d="M42 -126Q55 -133 79 -139T130 -145Q157 -145 172 -137T187 -110Q187 -90 173 -83T136 -75Q115 -75 92 -79T56 -88L114 21L153 7L118 -48Q126 -45 136 -44T154 -43Q189 -43 211 -59T233 -107Q233
-142 205 -162T123 -182Q93 -182 68 -177T22 -163L42 -126Z" />
<glyph unicode="&#xb9;" glyph-name="onesuperior" horiz-adv-x="280" d="M258 375V320H48V375H128V669Q123 663 112 655T88 639T60 626T33 620V675Q49 675 65 683T96 702T119 721T128 731H184V375H258Z" />
<glyph unicode="&#xba;" glyph-name="ordmasculine" horiz-adv-x="447" d="M223 344Q182 344 149 359T91 399T54 457T41 527Q41 564 54 597T91 656T148 696T223 711Q264 711 297 697T355 657T392 598T405 527Q405 491 392 458T355 399T298 359T223 344ZM113 526Q113
500 121 478T145 440T180 415T223 405Q246 405 266 414T301 440T324 479T333 528Q333 554 325 576T301 614T266 640T223 649Q200 649 180 640T145 614T122 575T113 526Z" />
<glyph unicode="&#xbb;" glyph-name="guillemotright" horiz-adv-x="599" d="M557 234L304 60V134L486 259L304 387V461L557 280V234ZM315 234L62 60V134L244 259L62 387V461L315 280V234Z" />
<glyph unicode="&#xbc;" glyph-name="onequarter" horiz-adv-x="861" d="M709 0V100H483V153L726 406H764V154H823V100H764V0H709ZM540 154H711V334L540 154ZM269 375V320H59V375H139V669Q134 663 123 655T99 639T71 626T44 620V675Q60 675 76 683T107 702T130
721T139 731H195V375H269ZM147 33L427 370L695 715L738 678L461 343L189 -5L147 33Z" />
<glyph unicode="&#xbd;" glyph-name="onehalf" horiz-adv-x="896" d="M540 0Q540 39 547 68T569 120T607 158T663 188Q685 197 708 205T750 225T781 251T793 288Q793 318 770 337T700 357Q677 357 658 352T624 339T598 322T578 303L544 343Q549 350 561 361T594
384T643 403T707 411Q780 411 816 377T853 287Q853 255 840 234T807 199T764 175T721 160Q691 150 672 137T643 110T629 82T625 54H854V0H540ZM272 375V320H62V375H142V669Q137 663 126 655T102 639T74 626T47 620V675Q63 675 79 683T110 702T133 721T142 731H198V375H272ZM113
33L393 370L661 715L704 678L427 343L155 -5L113 33Z" />
<glyph unicode="&#xbe;" glyph-name="threequarters" horiz-adv-x="876" d="M201 314Q138 314 96 337T43 400L75 438Q76 427 85 416T111 394T150 377T200 370Q247 370 279 387T312 435Q312 468 272 485T163 503H140V554H163Q226 554 262 569T298 616Q298 646 268
663T198 680Q157 680 128 665T83 626L46 669Q66 698 108 714T198 731Q232 731 261 723T311 699T345 664T357 619Q357 584 334 562T265 531Q313 524 340 495T368 427Q368 400 355 379T318 343T264 322T201 314ZM719 0V100H493V153L736 406H774V154H833V100H774V0H719ZM550
154H721V334L550 154ZM181 33L461 370L729 715L772 678L495 343L223 -5L181 33Z" />
<glyph unicode="&#xbf;" glyph-name="questiondown" horiz-adv-x="475" d="M334 295Q334 241 315 201T250 131Q232 119 209 106T164 76T129 34T114 -25Q114 -53 124 -74T152 -110T191 -132T237 -140Q262 -140 284 -133T326 -112T360 -82T385 -45L444 -84Q430 -115
409 -139T359 -179T300 -204T235 -213Q198 -213 162 -202T98 -166T53 -106T36 -21Q36 17 46 44T74 91T114 126T162 155Q180 165 198 176T229 202T251 240T260 295H334ZM332 506V390H258V506H332Z" />
<glyph unicode="&#xc0;" glyph-name="Agrave" horiz-adv-x="678" d="M11 0L303 710H377L668 0H572L488 208H190L107 0H11ZM340 606L208 278H468L340 606ZM236 917H323L382 816L325 796L236 917Z" />
<glyph unicode="&#xc1;" glyph-name="Aacute" horiz-adv-x="678" d="M11 0L303 710H377L668 0H572L488 208H190L107 0H11ZM340 606L208 278H468L340 606ZM355 795L297 815L355 916H443L355 795Z" />
<glyph unicode="&#xc2;" glyph-name="Acircumflex" horiz-adv-x="678" d="M11 0L303 710H377L668 0H572L488 208H190L107 0H11ZM340 606L208 278H468L340 606ZM207 826L308 916H372L473 826L425 802L340 865L255 802L207 826Z" />
<glyph unicode="&#xc3;" glyph-name="Atilde" horiz-adv-x="678" d="M11 0L303 710H377L668 0H572L488 208H190L107 0H11ZM340 606L208 278H468L340 606ZM402 813Q379 813 363 819T332 834T303 848T273 855Q256 855 247 848T232 833T226 816T224 807H172Q172 813
176 830T192 865T222 896T271 910Q292 910 308 904T338 889T367 874T400 867Q419 867 430 874T447 890T454 906T456 916H508Q508 910 504 894T487 859T455 827T402 813Z" />
<glyph unicode="&#xc4;" glyph-name="Adieresis" horiz-adv-x="678" d="M11 0L303 710H377L668 0H572L488 208H190L107 0H11ZM340 606L208 278H468L340 606ZM222 811V913H296V811H222ZM384 811V913H458V811H384Z" />
<glyph unicode="&#xc5;" glyph-name="Aring" horiz-adv-x="678" d="M11 0L303 710H377L668 0H572L488 208H190L107 0H11ZM340 606L208 278H468L340 606ZM258 847Q258 879 281 897T339 916Q375 916 397 898T420 847Q420 815 398 797T339 778Q304 778 281 796T258
847ZM339 885Q322 885 311 875T299 847Q299 831 310 820T339 809Q355 809 367 819T380 847Q380 864 368 874T339 885Z" />
<glyph unicode="&#xc6;" glyph-name="AE" horiz-adv-x="988" d="M448 710H936V630H561V402H882V322H561V80H945V0H472V208H223L93 0H-5L448 710ZM466 288V605L263 288H466Z" />
<glyph unicode="&#xc7;" glyph-name="Ccedilla" horiz-adv-x="684" d="M297 -126Q310 -133 334 -139T385 -145Q412 -145 427 -137T442 -110Q442 -90 428 -83T391 -75Q370 -75 347 -79T311 -88L355 -5Q286 -1 228 32T129 116T64 231T41 360Q41 424 63 487T129 601T236
683T379 714Q474 714 542 671T643 559L572 513Q556 547 534 570T485 607T430 627T375 633Q316 633 271 609T194 545T148 456T132 356Q132 300 150 250T202 160T280 98T378 75Q406 75 435 82T492 104T542 143T581 200L656 159Q640 122 613 93T551 43T478 10T400
-5L373 -48Q381 -45 391 -44T409 -43Q444 -43 466 -59T488 -107Q488 -142 460 -162T378 -182Q348 -182 323 -177T277 -163L297 -126Z" />
<glyph unicode="&#xc8;" glyph-name="Egrave" horiz-adv-x="610" d="M567 80V0H85V710H558V630H175V400H508V325H175V80H567ZM230 917H317L376 816L319 796L230 917Z" />
<glyph unicode="&#xc9;" glyph-name="Eacute" horiz-adv-x="610" d="M349 795L291 815L349 916H437L349 795ZM567 80V0H85V710H558V630H175V400H508V325H175V80H567Z" />
<glyph unicode="&#xca;" glyph-name="Ecircumflex" horiz-adv-x="610" d="M201 826L302 916H366L467 826L419 802L334 865L249 802L201 826ZM567 80V0H85V710H558V630H175V400H508V325H175V80H567Z" />
<glyph unicode="&#xcb;" glyph-name="Edieresis" horiz-adv-x="610" d="M216 811V913H290V811H216ZM378 811V913H452V811H378ZM567 80V0H85V710H558V630H175V400H508V325H175V80H567Z" />
<glyph unicode="&#xcc;" glyph-name="Igrave" horiz-adv-x="260" d="M85 0V709H175V0H85ZM26 917H113L172 816L115 796L26 917Z" />
<glyph unicode="&#xcd;" glyph-name="Iacute" horiz-adv-x="260" d="M85 0V709H175V0H85ZM145 795L87 815L145 916H233L145 795Z" />
<glyph unicode="&#xce;" glyph-name="Icircumflex" horiz-adv-x="260" d="M85 0V709H175V0H85ZM-3 826L98 916H162L263 826L215 802L130 865L45 802L-3 826Z" />
<glyph unicode="&#xcf;" glyph-name="Idieresis" horiz-adv-x="260" d="M85 0V709H175V0H85ZM12 811V913H86V811H12ZM174 811V913H248V811H174Z" />
<glyph unicode="&#xd0;" glyph-name="Eth" horiz-adv-x="723" d="M90 0V323H33V391H90V710H336Q421 710 485 682T593 606T657 494T679 356Q679 275 655 210T586 98T478 26T336 0H90ZM588 356Q588 416 572 466T523 553T443 609T336 630H180V391H341V323H180V80H336Q397
80 444 101T523 159T571 246T588 356Z" />
<glyph unicode="&#xd1;" glyph-name="Ntilde" horiz-adv-x="770" d="M175 542V0H85V710H155L595 157V709H685V0H609L175 542ZM449 813Q426 813 410 819T379 834T350 848T320 855Q303 855 294 848T279 833T273 816T271 807H219Q219 813 223 830T239 865T269 896T318
910Q339 910 355 904T385 889T414 874T447 867Q466 867 477 874T494 890T501 906T503 916H555Q555 910 551 894T534 859T502 827T449 813Z" />
<glyph unicode="&#xd2;" glyph-name="Ograve" horiz-adv-x="751" d="M375 -5Q300 -5 239 25T133 106T65 222T41 355Q41 426 66 491T137 606T243 685T377 715Q452 715 513 684T618 601T686 486T710 354Q710 283 685 218T615 104T509 25T375 -5ZM132 355Q132 301
149 251T199 161T276 99T376 76Q433 76 478 100T554 164T602 254T619 355Q619 409 602 459T552 548T475 610T376 633Q319 633 274 609T198 546T149 457T132 355ZM273 917H360L419 816L362 796L273 917Z" />
<glyph unicode="&#xd3;" glyph-name="Oacute" horiz-adv-x="751" d="M392 795L334 815L392 916H480L392 795ZM375 -5Q300 -5 239 25T133 106T65 222T41 355Q41 426 66 491T137 606T243 685T377 715Q452 715 513 684T618 601T686 486T710 354Q710 283 685 218T615
104T509 25T375 -5ZM132 355Q132 301 149 251T199 161T276 99T376 76Q433 76 478 100T554 164T602 254T619 355Q619 409 602 459T552 548T475 610T376 633Q319 633 274 609T198 546T149 457T132 355Z" />
<glyph unicode="&#xd4;" glyph-name="Ocircumflex" horiz-adv-x="751" d="M244 826L345 916H409L510 826L462 802L377 865L292 802L244 826ZM375 -5Q300 -5 239 25T133 106T65 222T41 355Q41 426 66 491T137 606T243 685T377 715Q452 715 513 684T618 601T686
486T710 354Q710 283 685 218T615 104T509 25T375 -5ZM132 355Q132 301 149 251T199 161T276 99T376 76Q433 76 478 100T554 164T602 254T619 355Q619 409 602 459T552 548T475 610T376 633Q319 633 274 609T198 546T149 457T132 355Z" />
<glyph unicode="&#xd5;" glyph-name="Otilde" horiz-adv-x="751" d="M375 -5Q300 -5 239 25T133 106T65 222T41 355Q41 426 66 491T137 606T243 685T377 715Q452 715 513 684T618 601T686 486T710 354Q710 283 685 218T615 104T509 25T375 -5ZM132 355Q132 301
149 251T199 161T276 99T376 76Q433 76 478 100T554 164T602 254T619 355Q619 409 602 459T552 548T475 610T376 633Q319 633 274 609T198 546T149 457T132 355ZM439 813Q416 813 400 819T369 834T340 848T310 855Q293 855 284 848T269 833T263 816T261 807H209Q209
813 213 830T229 865T259 896T308 910Q329 910 345 904T375 889T404 874T437 867Q456 867 467 874T484 890T491 906T493 916H545Q545 910 541 894T524 859T492 827T439 813Z" />
<glyph unicode="&#xd6;" glyph-name="Odieresis" horiz-adv-x="751" d="M259 811V913H333V811H259ZM421 811V913H495V811H421ZM375 -5Q300 -5 239 25T133 106T65 222T41 355Q41 426 66 491T137 606T243 685T377 715Q452 715 513 684T618 601T686 486T710 354Q710
283 685 218T615 104T509 25T375 -5ZM132 355Q132 301 149 251T199 161T276 99T376 76Q433 76 478 100T554 164T602 254T619 355Q619 409 602 459T552 548T475 610T376 633Q319 633 274 609T198 546T149 457T132 355Z" />
<glyph unicode="&#xd7;" glyph-name="multiply" horiz-adv-x="467" d="M405 157L349 102L233 218L117 102L62 158L177 273L64 387L120 442L233 329L347 443L402 387L289 273L405 157Z" />
<glyph unicode="&#xd8;" glyph-name="Oslash" horiz-adv-x="752" d="M665 710L603 618Q654 565 682 496T710 354Q710 283 685 218T615 104T509 25T375 -5Q329 -5 288 6T212 40L185 0H87L148 91Q97 142 69 211T41 355Q41 426 66 491T137 606T243 685T377 715Q422
715 462 703T538 669L566 710H665ZM619 355Q619 409 602 458T554 545L258 109Q311 76 376 76Q433 76 478 100T554 164T602 254T619 355ZM132 355Q132 301 148 251T197 163L492 600Q439 633 376 633Q319 633 274 609T198 546T149 457T132 355Z" />
<glyph unicode="&#xd9;" glyph-name="Ugrave" horiz-adv-x="753" d="M376 76Q438 76 479 100T544 162T579 250T589 351V710H679V351Q679 279 663 215T610 101T517 24T377 -5Q292 -5 234 25T141 104T90 218T74 351V710H164V351Q164 298 174 249T209 161T274 100T376
76ZM273 917H360L419 816L362 796L273 917Z" />
<glyph unicode="&#xda;" glyph-name="Uacute" horiz-adv-x="753" d="M392 795L334 815L392 916H480L392 795ZM376 76Q438 76 479 100T544 162T579 250T589 351V710H679V351Q679 279 663 215T610 101T517 24T377 -5Q292 -5 234 25T141 104T90 218T74 351V710H164V351Q164
298 174 249T209 161T274 100T376 76Z" />
<glyph unicode="&#xdb;" glyph-name="Ucircumflex" horiz-adv-x="753" d="M244 826L345 916H409L510 826L462 802L377 865L292 802L244 826ZM376 76Q438 76 479 100T544 162T579 250T589 351V710H679V351Q679 279 663 215T610 101T517 24T377 -5Q292 -5 234 25T141
104T90 218T74 351V710H164V351Q164 298 174 249T209 161T274 100T376 76Z" />
<glyph unicode="&#xdc;" glyph-name="Udieresis" horiz-adv-x="753" d="M259 811V913H333V811H259ZM421 811V913H495V811H421ZM376 76Q438 76 479 100T544 162T579 250T589 351V710H679V351Q679 279 663 215T610 101T517 24T377 -5Q292 -5 234 25T141 104T90 218T74
351V710H164V351Q164 298 174 249T209 161T274 100T376 76Z" />
<glyph unicode="&#xdd;" glyph-name="Yacute" horiz-adv-x="637" d="M103 710L318 340L535 710H633L363 259V0H273V261L4 710H103ZM333 795L275 815L333 916H421L333 795Z" />
<glyph unicode="&#xde;" glyph-name="Thorn" horiz-adv-x="606" d="M363 573Q410 573 449 554T517 502T562 429T578 346Q578 302 563 261T521 188T455 137T369 118H175V0H85V710H175V573H363ZM365 198Q393 198 416 210T455 243T479 290T488 346Q488 376 478 402T450
449T409 481T359 493H175V198H365Z" />
<glyph unicode="&#xdf;" glyph-name="germandbls" horiz-adv-x="553" d="M239 75Q280 76 314 84T373 109T411 152T425 215Q425 280 384 318T274 357H255V437H273Q321 437 351 465T381 540Q381 565 372 583T348 614T314 632T273 638Q242 638 220 627T182 597T160
554T153 503V0H69V517Q69 560 84 596T127 659T193 699T276 714Q316 714 350 703T410 670T450 619T465 553Q465 526 457 502T436 457T404 422T365 402Q401 394 429 377T476 334T506 276T516 208Q516 157 496 118T438 52T350 11T239 -6V75Z" />
<glyph unicode="&#xe0;" glyph-name="agrave" horiz-adv-x="557" d="M210 -10Q171 -10 138 2T81 36T44 87T30 150Q30 187 46 217T91 269T161 302T250 314Q288 314 327 307T396 288V330Q396 394 360 430T258 467Q179 467 92 406L63 463Q114 497 164 514T268 531Q368
531 426 476T484 321V108Q484 77 512 76V0Q502 -2 493 -3T476 -4Q454 -4 433 8T410 49L408 86Q390 62 367 44T318 14T265 -4T210 -10ZM232 56Q274 56 314 74T377 118Q396 140 396 159V236Q365 248 331 254T264 261Q196 261 155 234T114 158Q114 138 122 120T145
87T182 65T232 56ZM162 730H249L308 629L251 609L162 730Z" />
<glyph unicode="&#xe1;" glyph-name="aacute" horiz-adv-x="557" d="M210 -10Q171 -10 138 2T81 36T44 87T30 150Q30 187 46 217T91 269T161 302T250 314Q288 314 327 307T396 288V330Q396 394 360 430T258 467Q179 467 92 406L63 463Q114 497 164 514T268 531Q368
531 426 476T484 321V108Q484 77 512 76V0Q502 -2 493 -3T476 -4Q454 -4 433 8T410 49L408 86Q390 62 367 44T318 14T265 -4T210 -10ZM232 56Q274 56 314 74T377 118Q396 140 396 159V236Q365 248 331 254T264 261Q196 261 155 234T114 158Q114 138 122 120T145
87T182 65T232 56ZM281 609L223 629L281 730H369L281 609Z" />
<glyph unicode="&#xe2;" glyph-name="acircumflex" horiz-adv-x="557" d="M210 -10Q171 -10 138 2T81 36T44 87T30 150Q30 187 46 217T91 269T161 302T250 314Q288 314 327 307T396 288V330Q396 394 360 430T258 467Q179 467 92 406L63 463Q114 497 164 514T268
531Q368 531 426 476T484 321V108Q484 77 512 76V0Q502 -2 493 -3T476 -4Q454 -4 433 8T410 49L408 86Q390 62 367 44T318 14T265 -4T210 -10ZM232 56Q274 56 314 74T377 118Q396 140 396 159V236Q365 248 331 254T264 261Q196 261 155 234T114 158Q114 138 122
120T145 87T182 65T232 56ZM133 640L234 730H298L399 640L351 616L266 679L181 616L133 640Z" />
<glyph unicode="&#xe3;" glyph-name="atilde" horiz-adv-x="557" d="M210 -10Q171 -10 138 2T81 36T44 87T30 150Q30 187 46 217T91 269T161 302T250 314Q288 314 327 307T396 288V330Q396 394 360 430T258 467Q179 467 92 406L63 463Q114 497 164 514T268 531Q368
531 426 476T484 321V108Q484 77 512 76V0Q502 -2 493 -3T476 -4Q454 -4 433 8T410 49L408 86Q390 62 367 44T318 14T265 -4T210 -10ZM232 56Q274 56 314 74T377 118Q396 140 396 159V236Q365 248 331 254T264 261Q196 261 155 234T114 158Q114 138 122 120T145
87T182 65T232 56ZM328 627Q305 627 289 633T258 648T229 662T199 669Q182 669 173 662T158 647T152 630T150 621H98Q98 627 102 644T118 679T148 710T197 724Q218 724 234 718T264 703T293 688T326 681Q345 681 356 688T373 704T380 720T382 730H434Q434 724 430
708T413 673T381 641T328 627Z" />
<glyph unicode="&#xe4;" glyph-name="adieresis" horiz-adv-x="557" d="M210 -10Q171 -10 138 2T81 36T44 87T30 150Q30 187 46 217T91 269T161 302T250 314Q288 314 327 307T396 288V330Q396 394 360 430T258 467Q179 467 92 406L63 463Q114 497 164 514T268
531Q368 531 426 476T484 321V108Q484 77 512 76V0Q502 -2 493 -3T476 -4Q454 -4 433 8T410 49L408 86Q390 62 367 44T318 14T265 -4T210 -10ZM232 56Q274 56 314 74T377 118Q396 140 396 159V236Q365 248 331 254T264 261Q196 261 155 234T114 158Q114 138 122
120T145 87T182 65T232 56ZM148 624V726H222V624H148ZM310 624V726H384V624H310Z" />
<glyph unicode="&#xe5;" glyph-name="aring" horiz-adv-x="557" d="M210 -10Q171 -10 138 2T81 36T44 87T30 150Q30 187 46 217T91 269T161 302T250 314Q288 314 327 307T396 288V330Q396 394 360 430T258 467Q179 467 92 406L63 463Q114 497 164 514T268 531Q368
531 426 476T484 321V108Q484 77 512 76V0Q502 -2 493 -3T476 -4Q454 -4 433 8T410 49L408 86Q390 62 367 44T318 14T265 -4T210 -10ZM232 56Q274 56 314 74T377 118Q396 140 396 159V236Q365 248 331 254T264 261Q196 261 155 234T114 158Q114 138 122 120T145
87T182 65T232 56ZM184 661Q184 693 207 711T265 730Q301 730 323 712T346 661Q346 629 324 611T265 592Q230 592 207 610T184 661ZM265 699Q248 699 237 689T225 661Q225 645 236 634T265 623Q281 623 293 633T306 661Q306 678 294 688T265 699Z" />
<glyph unicode="&#xe6;" glyph-name="ae" horiz-adv-x="934" d="M206 -10Q169 -10 138 2T83 37T46 88T32 153Q32 189 48 218T93 269T162 302T251 314Q285 314 318 309T380 294Q382 310 385 328T394 360Q386 411 352 439T259 467Q181 467 93 406L64 463Q167 531
267 531Q331 531 377 506T448 436Q481 479 531 505T643 531Q702 531 751 510T834 451T888 365T908 261Q908 255 908 246T906 231H463Q466 192 482 160T523 105T580 69T649 56Q673 56 696 62T739 80T774 107T798 143L874 122Q861 93 839 69T787 28T721 0T646 -10Q575
-10 519 21T428 103Q411 73 385 52T329 17T267 -3T206 -10ZM229 56Q277 56 317 73T379 120Q396 137 398 155Q390 172 386 197T380 242Q353 251 323 256T264 261Q198 261 157 233T115 160Q115 138 124 119T148 86T184 64T229 56ZM824 288Q821 327 806 359T767 415T711
452T642 465Q605 465 573 452T517 416T479 360T462 288H824Z" />
<glyph unicode="&#xe7;" glyph-name="ccedilla" horiz-adv-x="556" d="M225 -126Q238 -133 262 -139T313 -145Q340 -145 355 -137T370 -110Q370 -90 356 -83T319 -75Q298 -75 275 -79T239 -88L281 -9Q227 -5 182 18T105 78T55 162T37 262Q37 317 56 366T110 451T193
509T302 531Q380 531 436 497T522 404L436 377Q416 414 380 434T300 455Q264 455 232 441T177 400T141 339T127 262Q127 221 141 185T178 123T233 81T301 66Q324 66 346 72T387 90T420 115T440 147L526 121Q504 67 451 32T326 -9L301 -48Q309 -45 319 -44T337 -43Q372
-43 394 -59T416 -107Q416 -142 388 -162T306 -182Q276 -182 251 -177T205 -163L225 -126Z" />
<glyph unicode="&#xe8;" glyph-name="egrave" horiz-adv-x="591" d="M302 -10Q243 -10 194 11T110 70T56 156T36 261Q36 316 55 365T110 451T195 509T303 531Q362 531 410 509T493 451T545 366T564 265Q564 254 564 245T562 231H129Q132 192 147 160T186 105T240
69T305 56Q329 56 352 62T395 80T430 107T454 143L530 122Q517 93 495 69T443 28T377 0T302 -10ZM481 296Q478 333 463 364T424 418T369 452T303 465Q268 465 237 453T183 418T145 364T127 296H481ZM195 730H282L341 629L284 609L195 730Z" />
<glyph unicode="&#xe9;" glyph-name="eacute" horiz-adv-x="591" d="M314 609L256 629L314 730H402L314 609ZM302 -10Q243 -10 194 11T110 70T56 156T36 261Q36 316 55 365T110 451T195 509T303 531Q362 531 410 509T493 451T545 366T564 265Q564 254 564 245T562
231H129Q132 192 147 160T186 105T240 69T305 56Q329 56 352 62T395 80T430 107T454 143L530 122Q517 93 495 69T443 28T377 0T302 -10ZM481 296Q478 333 463 364T424 418T369 452T303 465Q268 465 237 453T183 418T145 364T127 296H481Z" />
<glyph unicode="&#xea;" glyph-name="ecircumflex" horiz-adv-x="591" d="M166 640L267 730H331L432 640L384 616L299 679L214 616L166 640ZM302 -10Q243 -10 194 11T110 70T56 156T36 261Q36 316 55 365T110 451T195 509T303 531Q362 531 410 509T493 451T545
366T564 265Q564 254 564 245T562 231H129Q132 192 147 160T186 105T240 69T305 56Q329 56 352 62T395 80T430 107T454 143L530 122Q517 93 495 69T443 28T377 0T302 -10ZM481 296Q478 333 463 364T424 418T369 452T303 465Q268 465 237 453T183 418T145 364T127
296H481Z" />
<glyph unicode="&#xeb;" glyph-name="edieresis" horiz-adv-x="591" d="M181 624V726H255V624H181ZM343 624V726H417V624H343ZM302 -10Q243 -10 194 11T110 70T56 156T36 261Q36 316 55 365T110 451T195 509T303 531Q362 531 410 509T493 451T545 366T564 265Q564
254 564 245T562 231H129Q132 192 147 160T186 105T240 69T305 56Q329 56 352 62T395 80T430 107T454 143L530 122Q517 93 495 69T443 28T377 0T302 -10ZM481 296Q478 333 463 364T424 418T369 452T303 465Q268 465 237 453T183 418T145 364T127 296H481Z" />
<glyph unicode="&#xec;" glyph-name="igrave" horiz-adv-x="226" d="M69 0V522H157V0H69ZM9 730H96L155 629L98 609L9 730Z" />
<glyph unicode="&#xed;" glyph-name="iacute" horiz-adv-x="226" d="M128 609L70 629L128 730H216L128 609ZM69 0V522H157V0H69Z" />
<glyph unicode="&#xee;" glyph-name="icircumflex" horiz-adv-x="226" d="M-20 640L81 730H145L246 640L198 616L113 679L28 616L-20 640ZM69 0V522H157V0H69Z" />
<glyph unicode="&#xef;" glyph-name="idieresis" horiz-adv-x="226" d="M-5 624V726H69V624H-5ZM157 624V726H231V624H157ZM69 0V522H157V0H69Z" />
<glyph unicode="&#xf0;" glyph-name="eth" horiz-adv-x="606" d="M504 676L426 630Q465 589 491 545T534 456T558 370T565 290Q565 220 544 165T485 70T399 11T296 -10Q243 -10 196 9T114 60T59 137T38 233Q38 282 57 325T109 402T186 454T282 473Q345 473 396
445T475 368Q465 428 439 484T359 596L252 532L225 569L324 628Q265 680 176 730H300Q351 700 393 662L477 713L504 676ZM128 233Q128 198 141 168T178 115T232 79T299 66Q336 66 368 80T424 117T461 172T475 239Q475 273 462 303T425 354T370 388T303 401Q266
401 234 388T179 352T142 299T128 233Z" />
<glyph unicode="&#xf1;" glyph-name="ntilde" horiz-adv-x="586" d="M522 0H434V292Q434 376 409 414T331 452Q304 452 277 442T226 413T184 370T157 315V0H69V522H149V410Q180 465 238 498T366 531Q411 531 441 515T489 469T514 399T522 312V0ZM363 627Q340 627
324 633T293 648T264 662T234 669Q217 669 208 662T193 647T187 630T185 621H133Q133 627 137 644T153 679T183 710T232 724Q253 724 269 718T299 703T328 688T361 681Q380 681 391 688T408 704T415 720T417 730H469Q469 724 465 708T448 673T416 641T363 627Z"
/>
<glyph unicode="&#xf2;" glyph-name="ograve" horiz-adv-x="598" d="M299 -10Q240 -10 192 12T109 71T55 157T36 260Q36 315 55 364T109 450T192 509T299 531Q357 531 406 509T489 450T543 364T563 260Q563 206 544 157T490 71T407 12T299 -10ZM126 259Q126 218
139 183T176 122T231 81T299 66Q335 66 366 81T422 122T459 184T473 261Q473 301 460 336T422 398T367 440T299 455Q263 455 232 440T177 398T140 336T126 259ZM196 730H283L342 629L285 609L196 730Z" />
<glyph unicode="&#xf3;" glyph-name="oacute" horiz-adv-x="598" d="M314 609L256 629L314 730H402L314 609ZM299 -10Q240 -10 192 12T109 71T55 157T36 260Q36 315 55 364T109 450T192 509T299 531Q357 531 406 509T489 450T543 364T563 260Q563 206 544 157T490
71T407 12T299 -10ZM126 259Q126 218 139 183T176 122T231 81T299 66Q335 66 366 81T422 122T459 184T473 261Q473 301 460 336T422 398T367 440T299 455Q263 455 232 440T177 398T140 336T126 259Z" />
<glyph unicode="&#xf4;" glyph-name="ocircumflex" horiz-adv-x="598" d="M166 640L267 730H331L432 640L384 616L299 679L214 616L166 640ZM299 -10Q240 -10 192 12T109 71T55 157T36 260Q36 315 55 364T109 450T192 509T299 531Q357 531 406 509T489 450T543
364T563 260Q563 206 544 157T490 71T407 12T299 -10ZM126 259Q126 218 139 183T176 122T231 81T299 66Q335 66 366 81T422 122T459 184T473 261Q473 301 460 336T422 398T367 440T299 455Q263 455 232 440T177 398T140 336T126 259Z" />
<glyph unicode="&#xf5;" glyph-name="otilde" horiz-adv-x="598" d="M299 -10Q240 -10 192 12T109 71T55 157T36 260Q36 315 55 364T109 450T192 509T299 531Q357 531 406 509T489 450T543 364T563 260Q563 206 544 157T490 71T407 12T299 -10ZM126 259Q126 218
139 183T176 122T231 81T299 66Q335 66 366 81T422 122T459 184T473 261Q473 301 460 336T422 398T367 440T299 455Q263 455 232 440T177 398T140 336T126 259ZM362 627Q339 627 323 633T292 648T263 662T233 669Q216 669 207 662T192 647T186 630T184 621H132Q132
627 136 644T152 679T182 710T231 724Q252 724 268 718T298 703T327 688T360 681Q379 681 390 688T407 704T414 720T416 730H468Q468 724 464 708T447 673T415 641T362 627Z" />
<glyph unicode="&#xf6;" glyph-name="odieresis" horiz-adv-x="598" d="M181 624V726H255V624H181ZM343 624V726H417V624H343ZM299 -10Q240 -10 192 12T109 71T55 157T36 260Q36 315 55 364T109 450T192 509T299 531Q357 531 406 509T489 450T543 364T563 260Q563
206 544 157T490 71T407 12T299 -10ZM126 259Q126 218 139 183T176 122T231 81T299 66Q335 66 366 81T422 122T459 184T473 261Q473 301 460 336T422 398T367 440T299 455Q263 455 232 440T177 398T140 336T126 259Z" />
<glyph unicode="&#xf7;" glyph-name="divide" horiz-adv-x="527" d="M226 405V507H301V405H226ZM226 66V168H301V66H226ZM62 251V323H465V251H62Z" />
<glyph unicode="&#xf8;" glyph-name="oslash" horiz-adv-x="598" d="M125 54Q83 92 60 145T36 260Q36 315 55 364T109 450T192 509T299 531Q338 531 373 521T437 493L461 524H517L472 467Q515 429 539 375T563 260Q563 206 544 157T490 71T407 12T299 -10Q221
-10 159 29L135 -2H80L125 54ZM299 66Q335 66 366 81T422 122T459 184T473 261Q473 303 459 338T420 400L208 94Q248 66 299 66ZM126 259Q126 217 140 182T178 120L389 427Q369 440 347 447T299 455Q263 455 232 440T177 398T140 336T126 259Z" />
<glyph unicode="&#xf9;" glyph-name="ugrave" horiz-adv-x="603" d="M230 -10Q148 -10 106 45T64 209V522H152V226Q152 66 263 66Q317 66 364 100T435 195V522H523V108Q523 77 551 76V0Q540 -2 532 -3T516 -4Q486 -4 469 10T450 49L447 112Q412 53 355 22T230
-10ZM189 730H276L335 629L278 609L189 730Z" />
<glyph unicode="&#xfa;" glyph-name="uacute" horiz-adv-x="603" d="M307 609L249 629L307 730H395L307 609ZM230 -10Q148 -10 106 45T64 209V522H152V226Q152 66 263 66Q317 66 364 100T435 195V522H523V108Q523 77 551 76V0Q540 -2 532 -3T516 -4Q486 -4 469
10T450 49L447 112Q412 53 355 22T230 -10Z" />
<glyph unicode="&#xfb;" glyph-name="ucircumflex" horiz-adv-x="603" d="M159 640L260 730H324L425 640L377 616L292 679L207 616L159 640ZM230 -10Q148 -10 106 45T64 209V522H152V226Q152 66 263 66Q317 66 364 100T435 195V522H523V108Q523 77 551 76V0Q540
-2 532 -3T516 -4Q486 -4 469 10T450 49L447 112Q412 53 355 22T230 -10Z" />
<glyph unicode="&#xfc;" glyph-name="udieresis" horiz-adv-x="603" d="M174 624V726H248V624H174ZM336 624V726H410V624H336ZM230 -10Q148 -10 106 45T64 209V522H152V226Q152 66 263 66Q317 66 364 100T435 195V522H523V108Q523 77 551 76V0Q540 -2 532 -3T516
-4Q486 -4 469 10T450 49L447 112Q412 53 355 22T230 -10Z" />
<glyph unicode="&#xfd;" glyph-name="yacute" horiz-adv-x="543" d="M92 -143Q119 -146 140 -146Q149 -146 157 -142T175 -123T198 -79T230 0L9 522H100L278 79L440 522H524L268 -137Q250 -184 216 -204T136 -225Q125 -225 114 -224T92 -220V-143ZM293 609L235
629L293 730H381L293 609Z" />
<glyph unicode="&#xfe;" glyph-name="thorn" horiz-adv-x="601" d="M566 257Q565 203 545 153T490 65T409 5T308 -18Q256 -18 217 5T159 60V-213H69V710H159V449Q183 483 220 508T317 534Q375 534 421 510T499 445T548 356T566 257ZM476 258Q476 297 465 332T432
395T380 438T312 454Q285 454 262 445T220 421T186 386T159 344V173Q159 152 173 132T209 97T256 72T306 62Q343 62 374 78T428 122T463 184T476 258Z" />
<glyph unicode="&#xff;" glyph-name="ydieresis" horiz-adv-x="543" d="M92 -143Q119 -146 140 -146Q149 -146 157 -142T175 -123T198 -79T230 0L9 522H100L278 79L440 522H524L268 -137Q250 -184 216 -204T136 -225Q125 -225 114 -224T92 -220V-143ZM160 624V726H234V624H160ZM322
624V726H396V624H322Z" />
<glyph unicode="&#x2013;" glyph-name="endash" horiz-adv-x="580" d="M63 233V313H517V233H63Z" />
<glyph unicode="&#x2014;" glyph-name="emdash" horiz-adv-x="909" d="M63 233V313H846V233H63Z" />
<glyph unicode="&#x2018;" glyph-name="quoteleft" horiz-adv-x="212" d="M153 531Q136 531 118 535T86 547T63 570T54 606V730H128V620Q128 605 137 601T153 596V531Z" />
<glyph unicode="&#x2019;" glyph-name="quoteright" horiz-adv-x="212" d="M50 730Q67 730 84 726T116 714T140 691T149 655V531H75V641Q75 656 66 660T50 665V730Z" />
<glyph unicode="&#x201a;" glyph-name="quotesinglbase" horiz-adv-x="214" d="M48 -16Q55 -16 64 -12T73 8V112H146V-6Q146 -27 137 -41T114 -64T83 -77T48 -81V-16Z" />
<glyph unicode="&#x201c;" glyph-name="quotedblleft" horiz-adv-x="359" d="M153 531Q136 531 118 535T86 547T63 570T54 606V730H128V620Q128 605 137 601T153 596V531ZM301 531Q284 531 266 535T234 547T211 570T202 606V730H276V620Q276 605 285 601T301 596V531Z" />
<glyph unicode="&#x201d;" glyph-name="quotedblright" horiz-adv-x="360" d="M50 730Q67 730 84 726T116 714T140 691T149 655V531H75V641Q75 656 66 660T50 665V730ZM198 730Q215 730 232 726T264 714T288 691T297 655V531H223V641Q223 656 214 660T198 665V730Z" />
<glyph unicode="&#x201e;" glyph-name="quotedblbase" horiz-adv-x="351" d="M48 -16Q55 -16 64 -12T73 8V112H146V-6Q146 -27 137 -41T114 -64T83 -77T48 -81V-16ZM185 -16Q192 -16 201 -12T210 8V112H283V-6Q283 -27 274 -41T251 -64T220 -77T185 -81V-16Z" />
<glyph unicode="&#x2022;" glyph-name="bullet" horiz-adv-x="357" d="M273 347Q273 327 266 310T246 281T216 261T179 253Q160 253 143 260T113 280T93 310T85 347Q85 366 92 383T113 413T143 433T179 441Q198 441 215 434T245 413T265 383T273 347Z" />
<glyph unicode="&#x2039;" glyph-name="guilsinglleft" horiz-adv-x="357" d="M42 280L295 461V387L113 259L295 134V60L42 234V280Z" />
<glyph unicode="&#x203a;" glyph-name="guilsinglright" horiz-adv-x="357" d="M315 234L62 60V134L244 259L62 387V461L315 280V234Z" />
</font>
</defs>
</svg>
