<?xml version="1.0" standalone="no"?>
<!DOCTYPE svg PUBLIC "-//W3C//DTD SVG 1.1//EN" "http://www.w3.org/Graphics/SVG/1.1/DTD/svg11.dtd">
<svg xmlns="http://www.w3.org/2000/svg">
<defs >
<font id="Raleway" horiz-adv-x="449" ><font-face
    font-family="Raleway"
    units-per-em="1000"
    panose-1="2 11 0 3 3 1 1 6 0 3"
    ascent="940"
    descent="-234"
    alphabetic="0" />
<glyph unicode=" " glyph-name="space" horiz-adv-x="269" />
<glyph unicode="!" glyph-name="exclam" horiz-adv-x="210" d="M95 200V717H115V200H95ZM95 0V84H115V0H95Z" />
<glyph unicode="&quot;" glyph-name="quotedbl" horiz-adv-x="202" d="M66 626V710H86V626H66ZM116 626V710H136V626H116Z" />
<glyph unicode="#" glyph-name="numbersign" horiz-adv-x="655" d="M615 481H497L439 241H575V221H434L381 0H360L414 221H174L121 0H100L154 221H41V241H159L217 481H81V501H222L273 710H294L242 501H482L533 710H554L502 501H615V481ZM419 241L477 481H237L179
241H419Z" />
<glyph unicode="$" glyph-name="dollar" horiz-adv-x="604" d="M508 616Q466 662 421 679T312 696V363Q365 351 411 339T491 306T544 256T564 178Q564 133 546 99T495 42T416 7T312 -5V-93H292V-5Q208 -3 149 24T38 105L53 118Q104 61 162 38T292 12V349Q239 360
197 372T124 402T78 449T62 523Q62 613 124 661T292 714V815H312V715Q379 714 429 695T521 630L508 616ZM544 176Q544 218 527 245T479 291T406 322T312 345V12Q417 12 480 52T544 176ZM82 524Q82 485 94 461T133 420T198 392T292 368V695Q182 691 132 646T82 524Z"
/>
<glyph unicode="%" glyph-name="percent" horiz-adv-x="675" d="M188 444Q159 444 134 455T91 484T61 528T50 582Q50 610 61 635T90 679T134 709T188 720Q216 720 241 709T285 680T315 636T326 582Q326 553 315 528T286 485T242 455T188 444ZM188 464Q213 464
234 473T272 499T297 537T306 582Q306 607 297 628T271 666T233 691T188 700Q163 700 142 691T104 665T79 627T70 582Q70 557 79 536T105 498T142 473T188 464ZM487 -10Q458 -10 433 0T390 30T360 74T349 128Q349 156 360 181T389 225T433 255T487 266Q515 266
540 255T584 226T614 182T625 128Q625 99 614 74T585 30T541 1T487 -10ZM487 10Q512 10 533 19T571 45T596 83T605 128Q605 152 596 173T570 211T532 236T487 246Q462 246 441 237T403 211T378 173T369 128Q369 103 378 82T404 44T441 19T487 10ZM50 11L608 711L624
699L66 -1L50 11Z" />
<glyph unicode="&amp;" glyph-name="ampersand" horiz-adv-x="640" d="M598 0L492 110Q454 56 398 23T270 -10Q229 -10 191 1T121 36T72 92T53 170Q53 207 66 237T103 293T157 343T223 391Q191 424 170 450T135 497T116 537T110 574Q110 602 123 628T158 675T211
707T277 719Q310 719 337 709T384 681T415 640T426 591Q426 560 411 534T372 483T316 435T250 389L490 140Q515 182 528 231T542 333H562Q562 278 547 225T503 126L625 0H598ZM273 8Q339 8 391 40T479 124L235 379Q203 356 174 334T122 286T86 231T73 168Q73 127
91 97T138 47T202 18T273 8ZM130 573Q130 559 134 544T150 509T183 463T238 401Q277 427 308 450T360 495T394 540T406 589Q406 637 370 668T276 699Q245 699 219 689T173 662T142 622T130 573Z" />
<glyph unicode="&apos;" glyph-name="quotesingle" horiz-adv-x="132" d="M56 646V710H76V646H56Z" />
<glyph unicode="(" glyph-name="parenleft" horiz-adv-x="239" d="M52 345Q52 396 62 444T91 540T133 634T185 726L201 714Q177 679 154 634T112 539T83 438T71 342Q71 304 79 260T104 170T145 77T201 -14L185 -26Q120 69 86 161T52 345Z" />
<glyph unicode=")" glyph-name="parenright" horiz-adv-x="239" d="M187 345Q187 254 153 162T54 -26L38 -14Q69 30 93 77T134 170T159 260T168 342Q168 387 157 438T127 538T86 633T38 714L54 726Q81 680 105 634T148 541T176 445T187 345Z" />
<glyph unicode="*" glyph-name="asterisk" horiz-adv-x="307" d="M96 564L137 621L70 643L76 662L143 640V710H163V640L230 662L236 643L169 621L211 564L194 552L153 609L112 552L96 564Z" />
<glyph unicode="+" glyph-name="plus" horiz-adv-x="414" d="M357 365V345H217V195H197V345H57V365H197V515H217V365H357Z" />
<glyph unicode="," glyph-name="comma" horiz-adv-x="182" d="M71 -13Q84 -13 84 0V64H104V2Q104 -33 71 -33V-13Z" />
<glyph unicode="-" glyph-name="hyphen" horiz-adv-x="427" d="M72 261V281H355V261H72Z" />
<glyph unicode="." glyph-name="period" horiz-adv-x="164" d="M72 0V64H92V0H72Z" />
<glyph unicode="/" glyph-name="slash" horiz-adv-x="539" d="M511 710L55 0H30L485 710H511Z" />
<glyph unicode="0" glyph-name="zero" horiz-adv-x="616" d="M553 293Q553 227 535 172T484 76T406 13T308 -10Q255 -10 210 12T133 75T82 171T63 293Q63 359 81 414T132 510T210 574T308 597Q361 597 406 574T483 511T534 415T553 293ZM533 293Q533 356 517 408T471
497T400 556T308 577Q258 577 217 556T146 498T100 408T83 293Q83 230 99 178T145 89T216 31T308 10Q358 10 399 30T470 88T516 178T533 293Z" />
<glyph unicode="1" glyph-name="one" horiz-adv-x="381" d="M359 20V0H70V20H212V538Q204 526 185 512T142 484T93 461T47 452V476Q74 476 103 490T156 522T195 554T212 571H232V20H359Z" />
<glyph unicode="2" glyph-name="two" horiz-adv-x="507" d="M59 0Q59 18 63 52T84 124T135 200T230 263Q258 275 290 288T351 320T399 366T418 433Q418 456 408 479T378 520T328 549T256 561Q218 561 188 549T137 522T102 493T85 474L69 486Q69 486 82 501T119
534T177 566T256 581Q301 581 335 568T392 534T426 487T438 433Q438 388 418 357T366 305T300 270T237 244Q185 221 154 189T106 123T84 62T78 20H449V0H59Z" />
<glyph unicode="3" glyph-name="three" horiz-adv-x="519" d="M309 236Q381 226 424 175T467 48Q467 4 452 -31T408 -93T340 -133T255 -147Q180 -147 124 -113T47 -19L66 -12Q75 -38 92 -59T135 -95T191 -118T257 -127Q300 -127 335 -115T395 -79T433 -23T447
51Q447 132 395 179T252 227H230V247H253Q341 247 388 284T435 390Q435 427 422 457T384 510T327 544T255 556Q192 556 144 525T76 443L58 450Q68 478 87 501T132 541T189 567T255 576Q298 576 334 563T398 525T440 467T455 395Q455 331 416 288T309 236Z" />
<glyph unicode="4" glyph-name="four" horiz-adv-x="526" d="M386 -127V72H21V89L392 571H406V92H494V72H406V-127H386ZM49 92H386V534L49 92Z" />
<glyph unicode="5" glyph-name="five" horiz-adv-x="548" d="M274 306Q321 306 363 290T436 244T486 173T504 82Q504 30 485 -12T434 -85T359 -132T269 -149Q231 -149 197 -139T134 -109T83 -63T45 -3H67Q94 -60 148 -94T269 -129Q314 -129 353 -114T421 -70T467
-4T484 82Q484 127 468 164T423 229T356 271T274 286Q217 286 166 261T82 188H58Q60 197 64 218T75 267T87 329T101 397Q117 476 136 571H473V551H153L88 226Q124 265 172 285T274 306Z" />
<glyph unicode="6" glyph-name="six" horiz-adv-x="605" d="M557 232Q557 182 538 138T486 61T407 9T311 -10Q258 -10 213 9T133 64T80 151T61 266Q61 383 79 467T131 607T211 688T313 715Q386 715 441 676T519 568L500 561Q491 591 473 615T430 658T376 685T314
695Q262 695 220 669T147 594T100 472T83 308Q95 345 117 376T171 429T238 463T315 475Q365 475 409 456T486 404T538 327T557 232ZM313 10Q359 10 400 27T471 75T519 145T537 231Q537 277 519 317T470 388T399 437T312 455Q266 455 225 437T154 389T105 318T87
232Q87 187 105 147T154 76T226 28T313 10Z" />
<glyph unicode="7" glyph-name="seven" horiz-adv-x="532" d="M479 563H52V583H512L148 -127H125L479 563Z" />
<glyph unicode="8" glyph-name="eight" horiz-adv-x="590" d="M532 188Q532 143 513 107T460 46T383 7T291 -7Q237 -7 194 9T121 53T74 115T57 190Q57 227 71 258T108 314T161 356T221 381Q193 391 168 406T124 441T94 486T83 541Q83 582 101 613T150 666T218
699T295 710Q334 710 372 699T439 667T487 614T506 541Q506 511 495 486T464 441T420 406T367 381Q402 371 432 353T484 310T519 255T532 188ZM512 191Q512 234 492 267T440 324T369 359T293 371Q254 371 216 358T146 321T96 264T77 189Q77 146 97 113T149 57T219
22T296 10Q335 10 373 22T442 58T492 115T512 191ZM103 539Q103 503 120 476T166 430T227 401T294 391Q327 391 361 401T423 430T468 477T486 541Q486 577 470 604T426 651T364 680T293 690Q257 690 223 680T162 651T119 603T103 539Z" />
<glyph unicode="9" glyph-name="nine" horiz-adv-x="589" d="M42 329Q42 379 61 423T113 500T192 552T288 571Q341 571 386 552T466 497T519 410T538 295Q538 178 520 94T468 -46T388 -127T286 -154Q213 -154 158 -115T80 -7L99 0Q108 -30 126 -54T169 -97T223
-124T285 -134Q337 -134 379 -108T452 -33T499 89T516 253Q504 216 482 185T428 132T361 98T284 86Q234 86 190 105T113 157T61 234T42 329ZM286 551Q240 551 199 534T128 486T80 416T62 330Q62 284 80 244T128 173T200 124T287 106Q333 106 374 124T445 172T494
243T512 329Q512 374 494 414T445 485T373 533T286 551Z" />
<glyph unicode=":" glyph-name="colon" horiz-adv-x="164" d="M72 453V517H92V453H72ZM72 0V64H92V0H72Z" />
<glyph unicode=";" glyph-name="semicolon" horiz-adv-x="184" d="M85 453V517H105V453H85ZM72 -13Q85 -13 85 0V64H105V2Q105 -33 72 -33V-13Z" />
<glyph unicode="&lt;" glyph-name="less" horiz-adv-x="504" d="M35 268L452 517V495L64 259L452 22V0L35 250V268Z" />
<glyph unicode="=" glyph-name="equal" horiz-adv-x="445" d="M76 231V251H369V231H76ZM76 301V321H369V301H76Z" />
<glyph unicode="&gt;" glyph-name="greater" horiz-adv-x="504" d="M469 250L52 0V22L440 259L52 495V517L469 268V250Z" />
<glyph unicode="?" glyph-name="question" horiz-adv-x="471" d="M179 179Q179 227 185 258T203 311T231 344T265 366Q289 378 314 390T361 420T397 465T411 535Q411 578 397 609T360 660T306 689T245 699Q215 699 186 691T132 668T87 631T54 582L36 590Q50 621
72 645T122 685T181 710T244 719Q280 719 314 707T374 672T415 613T431 532Q431 487 417 458T379 409T328 376T273 347Q257 338 244 328T220 299T205 252T199 179H179ZM179 0V84H199V0H179Z" />
<glyph unicode="@" glyph-name="at" horiz-adv-x="819" d="M418 603Q492 603 557 573T670 492T746 371T774 222Q774 208 773 185T766 135T752 81T728 33T689 -2T634 -16Q610 -16 596 -9T575 12T564 44T559 84Q533 55 489 34T392 12Q359 12 332 21T286 48T257 88T246
140Q246 176 262 200T304 238T362 259T427 265Q472 265 509 257T563 242Q563 283 557 317T536 376T496 415T431 429Q393 429 356 417T287 381L275 397Q310 420 348 434T432 449Q481 449 510 432T556 386T577 321T582 248V95Q582 50 591 27T635 4Q669 4 692 26T729
82T748 153T754 223Q754 298 728 363T656 477T549 554T418 583Q351 583 289 557T180 483T104 372T75 230Q75 156 102 91T175 -22T284 -98T417 -126Q456 -126 494 -117T569 -88L579 -106Q502 -146 417 -146Q343 -146 277 -117T162 -37T84 82T55 230Q55 312 85 380T166
498T281 575T418 603ZM489 55Q514 67 528 81T550 110T560 142T562 174V221Q556 221 544 224T515 232T474 241T422 245Q393 245 366 240T316 223T280 191T266 140Q266 114 276 94T304 60T344 39T392 32Q418 32 444 39T489 55Z" />
<glyph unicode="A" glyph-name="A" horiz-adv-x="683" d="M23 0L333 710H351L660 0H638L527 254H156L45 0H23ZM342 681L164 274H518L342 681Z" />
<glyph unicode="B" glyph-name="B" horiz-adv-x="660" d="M607 184Q607 147 593 114T555 56T499 15T430 0H101V710H415Q452 710 482 694T533 653T565 595T577 529Q577 475 550 430T475 364Q505 355 529 337T571 295T598 243T607 184ZM587 184Q587 216 576 245T544
298T497 334T437 348H121V20H430Q463 20 491 34T541 71T575 123T587 184ZM121 690V368H409Q442 368 469 382T515 419T546 470T557 529Q557 561 547 590T518 641T473 677T415 690H121Z" />
<glyph unicode="C" glyph-name="C" horiz-adv-x="702" d="M52 360Q52 424 74 487T139 600T244 682T387 714Q482 714 548 671T646 559L627 553Q606 592 579 619T519 662T452 686T383 694Q309 694 251 665T153 587T93 479T72 357Q72 289 96 227T163 118T263 42T386
14Q421 14 458 23T529 50T593 96T644 164L663 159Q645 119 614 88T545 36T465 5T382 -6Q310 -6 249 26T145 109T77 226T52 360Z" />
<glyph unicode="D" glyph-name="D" horiz-adv-x="718" d="M101 0V710H329Q413 710 475 682T579 606T641 494T662 356Q662 275 639 210T572 98T467 26T329 0H101ZM642 356Q642 429 622 490T561 595T463 665T329 690H121V20H329Q406 20 464 45T562 116T622 222T642 356Z" />
<glyph unicode="E" glyph-name="E" horiz-adv-x="619" d="M567 20V0H101V710H558V690H121V373H504V353H121V20H567Z" />
<glyph unicode="F" glyph-name="F" horiz-adv-x="596" d="M101 0V710H558V690H121V374H494V354H121V0H101Z" />
<glyph unicode="G" glyph-name="G" horiz-adv-x="730" d="M644 121Q533 -5 388 -5Q314 -5 253 26T147 109T78 224T53 355Q53 424 77 489T143 604T245 685T376 715Q431 715 474 704T550 672T606 623T647 560L628 554Q587 629 523 662T376 695Q306 695 250 666T155
588T94 479T73 355Q73 288 97 227T165 118T265 43T388 15Q458 15 521 47T644 149V318H477V338H664V0H644V121Z" />
<glyph unicode="H" glyph-name="H" horiz-adv-x="735" d="M634 710V0H614V353H121V0H101V710H121V373H614V710H634Z" />
<glyph unicode="I" glyph-name="I" horiz-adv-x="222" d="M101 0V709H121V0H101Z" />
<glyph unicode="J" glyph-name="J" horiz-adv-x="480" d="M34 49Q92 9 177 9Q241 9 278 32T335 99T361 206T367 349V709H387V349Q387 268 381 202T352 88T289 15T177 -11Q87 -11 23 33L34 49Z" />
<glyph unicode="K" glyph-name="K" horiz-adv-x="623" d="M101 0V709H121V249L573 710H602L299 400L616 0H590L284 386L121 221V0H101Z" />
<glyph unicode="L" glyph-name="L" horiz-adv-x="591" d="M101 0V710H121V20H567V0H101Z" />
<glyph unicode="M" glyph-name="M" horiz-adv-x="888" d="M767 0V666L452 140H436L121 666V0H101V710H117L444 164L771 710H787V0H767Z" />
<glyph unicode="N" glyph-name="N" horiz-adv-x="780" d="M121 671V0H101V710H116L659 29V709H679V0H656L121 671Z" />
<glyph unicode="O" glyph-name="O" horiz-adv-x="767" d="M384 -5Q310 -5 250 26T145 107T77 222T53 355Q53 426 78 491T148 606T253 685T384 715Q457 715 518 684T622 601T690 486T714 355Q714 283 689 218T619 104T514 25T384 -5ZM73 355Q73 289 96 228T161
119T259 43T384 15Q453 15 510 44T608 122T671 231T694 355Q694 421 671 482T605 591T507 667T384 695Q315 695 258 666T159 588T96 479T73 355Z" />
<glyph unicode="P" glyph-name="P" horiz-adv-x="622" d="M101 0V710H390Q433 710 470 692T533 643T575 574T590 495Q590 453 576 414T537 345T476 297T397 279H121V0H101ZM121 299H397Q437 299 469 316T524 361T558 424T570 495Q570 533 556 568T518 630T460
673T390 690H121V299Z" />
<glyph unicode="Q" glyph-name="Q" horiz-adv-x="767" d="M591 76Q549 38 497 17T384 -5Q310 -5 250 26T145 107T77 222T53 355Q53 426 78 491T148 606T253 685T384 715Q457 715 518 684T622 601T690 486T714 355Q714 277 685 209T605 89L677 0H652L591 76ZM384
15Q442 15 491 36T579 92L504 186H529L593 105Q641 155 667 220T694 355Q694 421 671 482T605 591T507 667T384 695Q315 695 258 666T159 588T96 479T73 355Q73 289 96 228T161 119T259 43T384 15Z" />
<glyph unicode="R" glyph-name="R" horiz-adv-x="649" d="M101 0V710H390Q433 710 470 692T533 643T575 574T590 495Q590 454 577 416T540 349T483 301T409 279L589 0H565L385 279H121V0H101ZM121 299H397Q437 299 469 316T523 360T558 423T570 495Q570 533 556
568T518 630T460 673T390 690H121V299Z" />
<glyph unicode="S" glyph-name="S" horiz-adv-x="610" d="M513 616Q471 662 426 679T317 696Q256 696 213 684T141 650T100 596T87 526Q87 488 100 463T140 420T209 390T311 365Q370 353 418 339T499 304T551 252T569 174Q569 87 503 41T319 -5Q233 -5 167 21T43
105L58 118Q112 62 175 37T320 12Q426 12 487 51T549 171Q549 211 535 238T492 286T418 320T312 346Q253 357 208 369T131 401T83 450T67 524Q67 570 84 605T134 665T212 702T315 715Q383 715 433 696T526 630L513 616Z" />
<glyph unicode="T" glyph-name="T" horiz-adv-x="610" d="M587 690H315V0H295V690H23V710H587V690Z" />
<glyph unicode="U" glyph-name="U" horiz-adv-x="761" d="M380 15Q460 15 512 45T595 123T638 232T651 355V710H671V355Q671 284 657 219T608 105T519 25T381 -5Q297 -5 241 26T152 108T104 223T90 355V710H110V355Q110 291 122 230T166 121T249 44T380 15Z" />
<glyph unicode="V" glyph-name="V" horiz-adv-x="680" d="M41 710L340 25L638 710H660L351 0H329L20 710H41Z" />
<glyph unicode="W" glyph-name="W" horiz-adv-x="1040" d="M382 704H404L519 438L635 704H657L530 414L700 25L998 710H1020L711 0H689L520 389L351 0H329L20 710H42L340 25L509 414L382 704Z" />
<glyph unicode="X" glyph-name="X" horiz-adv-x="621" d="M37 710L311 366L585 710H610L323 350L602 0H577L311 334L45 0H19L298 350L11 710H37Z" />
<glyph unicode="Y" glyph-name="Y" horiz-adv-x="627" d="M39 710L313 298L588 710H611L323 275V0H303V277L16 710H39Z" />
<glyph unicode="Z" glyph-name="Z" horiz-adv-x="625" d="M29 20L571 690H34V710H596V690L54 20H592V0H29V20Z" />
<glyph unicode="[" glyph-name="bracketleft" horiz-adv-x="210" d="M93 -40V740H163V720H113V-20H163V-40H93Z" />
<glyph unicode="\" glyph-name="backslash" horiz-adv-x="519" d="M54 710L489 0H464L28 710H54Z" />
<glyph unicode="]" glyph-name="bracketright" horiz-adv-x="210" d="M47 -40V-20H97V720H47V740H117V-40H47Z" />
<glyph unicode="^" glyph-name="asciicircum" horiz-adv-x="509" d="M48 303L246 710H264L461 303H438L255 681L69 303H48Z" />
<glyph unicode="_" glyph-name="underscore" horiz-adv-x="439" d="M23 -20V0H416V-20H23Z" />
<glyph unicode="`" glyph-name="grave" horiz-adv-x="198" d="M50 730H83L148 657L132 645L50 730Z" />
<glyph unicode="a" glyph-name="a" horiz-adv-x="525" d="M206 -10Q171 -10 140 2T87 36T51 87T38 149Q38 182 53 209T97 255T165 286T252 297Q297 297 343 290T426 268V327Q426 367 414 400T380 457T326 494T256 507Q218 507 175 491T88 443L76 459Q176 527 256
527Q299 527 334 513T394 473T432 410T446 327V40Q446 20 462 20V0Q451 0 448 2Q438 6 432 16T426 40V88Q390 41 332 16T206 -10ZM206 10Q273 10 328 35T411 102Q426 123 426 143V246Q346 277 252 277Q208 277 173 268T112 242T72 202T58 149Q58 120 69 95T101
50T148 21T206 10Z" />
<glyph unicode="b" glyph-name="b" horiz-adv-x="603" d="M306 -10Q275 -10 246 -1T190 24T141 61T103 108V0H83V730H103V398Q143 454 195 490T315 527Q372 527 417 503T492 441T539 354T556 258Q556 205 537 157T484 71T405 12T306 -10ZM306 10Q356 10 398 31T471
88T519 167T536 258Q536 306 520 351T475 430T405 486T315 507Q278 507 246 495T187 461T139 413T103 356V167Q105 135 125 107T176 57T241 23T306 10Z" />
<glyph unicode="c" glyph-name="c" horiz-adv-x="540" d="M47 262Q47 318 66 366T119 450T198 506T297 527Q363 527 414 497T492 411L472 404Q446 452 399 479T294 507Q246 507 205 488T133 436T85 358T67 262Q67 211 85 165T134 85T207 30T295 10Q325 10 355
19T411 43T455 78T479 119L499 113Q490 87 471 65T424 26T365 0T298 -10Q247 -10 201 11T121 70T67 156T47 262Z" />
<glyph unicode="d" glyph-name="d" horiz-adv-x="604" d="M297 -10Q243 -10 197 13T118 74T66 160T47 258Q47 312 65 360T115 446T192 505T288 527Q324 527 355 517T414 489T462 448T500 398V730H520V40Q520 20 536 20V0Q527 0 523 2Q512 7 506 17T500 40V108Q483
82 461 61T412 23T356 -1T297 -10ZM297 10Q327 10 362 23T427 57T477 108T500 169V356Q489 387 466 414T414 462T352 495T288 507Q237 507 197 486T127 429T83 349T67 258Q67 209 85 165T134 86T207 31T297 10Z" />
<glyph unicode="e" glyph-name="e" horiz-adv-x="578" d="M297 -10Q246 -10 201 11T121 70T67 157T47 263Q47 318 66 366T118 450T196 506T292 527Q344 527 389 506T468 449T522 364T542 259V248H67Q71 198 90 155T141 79T212 29T298 10Q328 10 356 18T410 40T454
75T484 119L503 114Q492 87 472 65T424 26T364 0T297 -10ZM521 268Q518 320 499 364T450 439T379 489T293 507Q247 507 207 489T137 439T88 363T67 268H521Z" />
<glyph unicode="f" glyph-name="f" horiz-adv-x="320" d="M107 0V438H32V458H107V540Q107 635 143 687T244 740Q273 740 299 731T339 706L323 694Q311 706 290 713T245 721Q188 721 158 675T127 540V458H282V438H127V0H107Z" />
<glyph unicode="g" glyph-name="g" horiz-adv-x="603" d="M297 -10Q243 -10 197 13T118 74T66 160T47 258Q47 310 64 358T114 444T190 504T288 527Q323 527 353 517T410 490T459 449T500 398V519H520V-22Q520 -73 501 -111T450 -174T377 -211T291 -223Q199 -223
147 -189T66 -99L85 -93Q117 -152 172 -177T291 -203Q334 -203 372 -192T438 -157T483 -101T500 -22V108Q483 82 461 61T412 23T356 -1T297 -10ZM297 10Q334 10 369 24T433 62T479 113T500 169V356Q488 389 466 416T415 464T354 495T288 507Q235 507 194 485T125
427T82 347T67 258Q67 209 85 165T134 86T207 31T297 10Z" />
<glyph unicode="h" glyph-name="h" horiz-adv-x="562" d="M486 0H466V289Q466 507 322 507Q286 507 251 493T187 455T135 399T103 328V0H83V730H103V385Q119 417 142 443T194 488T255 517T321 527Q402 527 444 467T486 289V0Z" />
<glyph unicode="i" glyph-name="i" horiz-adv-x="186" d="M83 0V519H103V0H83ZM83 653V730H103V653H83Z" />
<glyph unicode="j" glyph-name="j" horiz-adv-x="186" d="M-30 -170Q-59 -170 -84 -163T-130 -136L-114 -124Q-96 -140 -74 -145T-31 -150Q-10 -150 10 -141T46 -117T73 -81T83 -36V519H103V-36Q103 -65 91 -89T60 -132T17 -160T-30 -170ZM83 653V730H103V653H83Z" />
<glyph unicode="k" glyph-name="k" horiz-adv-x="506" d="M465 0L244 297L103 169V0H83V730H103V196L457 517H484L259 311L489 0H465Z" />
<glyph unicode="l" glyph-name="l" horiz-adv-x="225" d="M88 730H108V77Q108 48 126 31T174 14Q185 14 200 16T229 23L236 7Q222 2 202 -1T167 -5Q132 -5 110 17T88 77V730Z" />
<glyph unicode="m" glyph-name="m" horiz-adv-x="906" d="M829 0H809V289Q809 401 776 454T670 507Q633 507 601 494T542 456T496 399T466 327V0H446V289Q446 402 413 454T308 507Q272 507 240 494T181 458T134 401T103 328V0H83V519H103V385Q137 453 189 490T304
527Q370 527 412 486T462 376Q540 527 670 527Q751 527 790 469T829 289V0Z" />
<glyph unicode="n" glyph-name="n" horiz-adv-x="563" d="M486 0H466V289Q466 403 435 455T333 507Q295 507 259 494T191 456T137 399T103 328V0H83V519H103V385Q119 416 144 442T199 487T263 516T332 527Q412 527 449 470T486 289V0Z" />
<glyph unicode="o" glyph-name="o" horiz-adv-x="588" d="M294 -10Q243 -10 198 11T120 69T67 155T47 258Q47 313 66 361T120 447T199 505T294 527Q344 527 389 506T467 447T521 362T541 258Q541 204 522 155T469 70T390 12T294 -10ZM67 256Q67 206 85 161T133
83T205 30T293 10Q339 10 380 30T453 84T503 163T521 259Q521 309 503 354T454 433T382 487T294 507Q248 507 207 487T134 433T85 353T67 256Z" />
<glyph unicode="p" glyph-name="p" horiz-adv-x="603" d="M315 -10Q280 -10 249 0T191 28T142 69T103 119V-213H83V519H103V409Q119 435 142 456T191 494T247 518T306 527Q361 527 407 504T486 442T537 356T556 258Q556 205 539 157T490 71T414 12T315 -10ZM315
10Q366 10 406 31T476 88T520 167T536 258Q536 307 518 352T469 431T396 486T306 507Q276 507 241 494T176 459T126 408T103 348V161Q117 129 139 102T188 54T248 22T315 10Z" />
<glyph unicode="q" glyph-name="q" horiz-adv-x="603" d="M288 -10Q233 -10 189 13T113 73T64 159T47 258Q47 311 66 359T120 445T199 505T297 527Q328 527 357 518T413 493T462 456T500 409V519H520V-173Q520 -193 536 -193V-213Q526 -213 522 -211Q511 -206
506 -196T500 -173V119Q456 56 403 23T288 -10ZM288 10Q325 10 357 22T416 56T464 104T500 161V348Q497 379 477 408T428 459T365 494T297 507Q246 507 204 486T132 429T84 349T67 258Q67 209 83 164T129 85T199 31T288 10Z" />
<glyph unicode="r" glyph-name="r" horiz-adv-x="325" d="M305 499Q231 496 178 451T103 328V0H83V519H103V385Q130 440 175 475T272 517Q282 518 290 518T305 519V499Z" />
<glyph unicode="s" glyph-name="s" horiz-adv-x="471" d="M235 -10Q114 -10 37 74L52 87Q92 48 135 29T235 10Q312 10 360 43T408 136Q408 164 396 182T361 214T304 237T227 257Q185 267 154 275T103 297T72 329T61 380Q61 419 76 446T116 492T174 518T244 527Q307
527 351 506T413 452L395 444Q376 475 333 491T240 507Q208 507 179 500T128 478T94 440T81 383Q81 357 89 341T116 313T162 294T228 277Q274 266 311 256T374 231T414 195T428 139Q428 105 414 78T375 31T314 1T235 -10Z" />
<glyph unicode="t" glyph-name="t" horiz-adv-x="295" d="M288 24Q288 24 281 19T261 9T231 0T193 -5Q157 -5 130 17T103 75V499H28V519H103V700H123V519H248V499H123V75Q123 46 145 31T193 15Q210 15 225 18T251 26T269 35T277 40L288 24Z" />
<glyph unicode="u" glyph-name="u" horiz-adv-x="574" d="M244 -10Q77 -10 77 228V519H97V228Q97 10 244 10Q281 10 317 23T383 60T435 117T470 189V519H490V40Q490 20 506 20V0Q495 0 492 2Q482 6 476 16T470 40V132Q436 66 375 28T244 -10Z" />
<glyph unicode="v" glyph-name="v" horiz-adv-x="520" d="M251 0L25 519H47L260 29L473 519H495L269 0H251Z" />
<glyph unicode="w" glyph-name="w" horiz-adv-x="794" d="M747 519H769L542 0H524L397 291L270 0H252L25 519H47L261 29L386 316L299 518H320L397 342L474 518H495L408 316L533 29L747 519Z" />
<glyph unicode="x" glyph-name="x" horiz-adv-x="480" d="M45 519L232 285L240 273L248 285L435 519H461L253 258L459 0H433L248 232L240 244L232 232L47 0H21L227 258L19 519H45Z" />
<glyph unicode="y" glyph-name="y" horiz-adv-x="541" d="M129 -203Q146 -203 159 -201T176 -193Q177 -191 181 -183T195 -154T221 -96T263 0L22 519H44L273 25L490 519H512L203 -186Q191 -214 170 -218Q150 -223 129 -223V-203Z" />
<glyph unicode="z" glyph-name="z" horiz-adv-x="483" d="M31 20L427 499H36V519H452V499L57 20H448V0H31V20Z" />
<glyph unicode="{" glyph-name="braceleft" horiz-adv-x="214" d="M113 720V416Q113 413 113 407T110 393T104 376T92 360Q108 346 110 328T113 304V-11H168V-31H116Q108 -31 101 -25T93 -1V304Q93 319 87 334T63 351V371Q73 371 79 377T88 390T92 405T93 416V710Q93
730 102 735T116 740H168V720H113Z" />
<glyph unicode="|" glyph-name="bar" horiz-adv-x="202" d="M91 -130V775H111V-130H91Z" />
<glyph unicode="}" glyph-name="braceright" horiz-adv-x="214" d="M46 720V740H98Q102 740 111 735T121 710V416Q121 413 121 406T125 391T134 377T151 371V351Q133 349 127 334T121 304V-1Q121 -18 114 -24T98 -31H46V-11H101V304Q101 309 103 327T122 360Q114
367 110 375T104 392T102 407T101 416V720H46Z" />
<glyph unicode="~" glyph-name="asciitilde" horiz-adv-x="468" d="M73 251Q73 252 77 265T92 293T118 320T157 332Q177 332 195 323T232 302T268 281T306 271Q324 271 337 278T359 296T372 314T376 325L396 324Q388 303 376 287Q365 273 349 262T306 251Q282
251 262 260T224 281T190 302T157 312Q142 312 130 303T110 282T97 262T93 251H73V251Z" />
<glyph unicode="&#xa0;" glyph-name="uni00A0" horiz-adv-x="269" />
<glyph unicode="&#xa1;" glyph-name="exclamdown" horiz-adv-x="212" d="M116 517V0H96V517H116ZM116 717V633H96V717H116Z" />
<glyph unicode="&#xa2;" glyph-name="cent" horiz-adv-x="547" d="M280 -120V-9Q229 -5 187 19T115 81T67 164T50 258Q50 309 67 356T114 440T186 501T280 527V645H300V527Q378 525 423 493T494 411L475 404Q446 456 401 480T300 507V10Q324 10 353 17T409 39T455
74T482 119L502 113Q492 83 470 60T420 22T360 -2T300 -10V-120H280ZM70 258Q70 212 86 169T130 93T197 37T280 11V507Q230 504 191 481T125 423T84 345T70 258Z" />
<glyph unicode="&#xa3;" glyph-name="sterling" horiz-adv-x="474" d="M52 366H161Q149 389 135 411T110 455T91 500T83 550Q83 584 96 614T131 666T183 702T246 715Q296 715 339 687T408 610L391 598Q367 643 328 669T244 695Q215 695 190 684T146 654T116 608T105
552Q105 526 113 504T133 459T159 414T185 366H358V346H194Q204 323 210 297T217 242Q217 215 211 190T191 139T155 84T99 18Q116 21 134 23T170 25Q193 25 212 22T248 15T282 8T318 5Q339 5 362 10T417 26L423 7Q369 -15 317 -15Q295 -15 277 -12T242 -5T205 2T164
5Q142 5 117 2T70 -7L60 10Q100 53 126 85T168 143T190 192T196 241Q196 271 189 297T171 346H52V366Z" />
<glyph unicode="&#xa5;" glyph-name="yen" horiz-adv-x="653" d="M380 341H473V321H367L336 275V251H473V231H336V0H316V231H180V251H316V277L287 321H180V341H274L29 710H52L326 298L601 710H624L380 341Z" />
<glyph unicode="&#xa6;" glyph-name="brokenbar" horiz-adv-x="206" d="M113 285V-130H93V285H113ZM113 775V360H93V775H113Z" />
<glyph unicode="&#xa7;" glyph-name="section" horiz-adv-x="496" d="M392 181Q421 165 433 139T446 74Q446 35 429 5T385 -46T325 -77T260 -88Q195 -88 151 -64T73 -6L88 7Q129 -31 169 -49T260 -68Q290 -68 319 -59T372 -31T411 14T426 74Q426 110 412 132T375
167T323 184T266 190Q229 191 195 200T136 227T95 273T80 341Q80 367 89 393T112 435Q85 452 69 484T53 557Q53 595 70 624T113 674T172 704T237 715Q303 715 340 696T402 640L384 632Q374 651 357 663T320 683T278 692T237 695Q208 695 179 686T126 658T88 615T73
557Q73 521 85 496T120 456T172 433T239 426Q274 426 308 418T369 393T412 347T429 280Q429 251 419 225T392 181ZM100 341Q100 301 114 277T151 238T204 218T263 209T322 202T372 190Q389 204 399 229T409 280Q409 316 393 340T352 379T297 400T239 406Q210 406
182 410T131 425Q117 411 109 388T100 341Z" />
<glyph unicode="&#xa8;" glyph-name="dieresis" horiz-adv-x="236" d="M50 653V730H70V653H50ZM166 653V730H186V653H166Z" />
<glyph unicode="&#xa9;" glyph-name="copyright" horiz-adv-x="834" d="M417 -7Q339 -7 273 20T159 96T84 211T56 355Q56 432 83 498T159 612T273 687T417 715Q495 715 561 688T675 612T750 498T778 355Q778 277 751 211T675 97T561 21T417 -7ZM418 13Q490 13
551 37T659 107T731 214T757 352Q757 426 732 489T661 597T553 669T418 695Q344 695 282 670T174 598T103 490T77 354Q77 281 102 219T173 111T281 39T418 13ZM424 127Q386 127 347 142T277 186T225 258T205 355Q205 395 217 436T255 510T321 565T416 586Q472 586
519 562T586 487L567 480Q555 507 537 524T497 550T454 563T416 566Q366 566 330 547T271 497T237 429T225 355Q225 305 243 267T290 202T353 161T420 147Q442 147 465 153T511 171T550 200T577 238L596 233Q592 220 578 202T542 167T489 139T424 127Z" />
<glyph unicode="&#xaa;" glyph-name="ordfeminine" horiz-adv-x="427" d="M170 351Q145 351 124 359T86 382T61 415T52 458Q52 480 63 499T94 531T141 552T201 560Q231 560 261 555T316 541V576Q316 625 286 654T205 684Q151 684 89 643L76 663Q146 709 207 709Q272
709 309 673T347 573V402Q347 386 361 386V357Q341 357 331 363T320 387L319 416Q294 385 255 368T170 351ZM176 377Q201 377 226 383T271 401T303 426T316 457V518Q290 529 262 533T205 537Q150 537 116 516T82 459Q82 424 109 401T176 377Z" />
<glyph unicode="&#xab;" glyph-name="guillemotleft" horiz-adv-x="526" d="M50 268L287 437V415L69 259L287 102V80L50 250V268ZM220 268L457 437V415L239 259L457 102V80L220 250V268Z" />
<glyph unicode="&#xac;" glyph-name="logicalnot" horiz-adv-x="570" d="M494 338V140H474V318H91V338H494Z" />
<glyph unicode="&#xad;" glyph-name="uni00AD" horiz-adv-x="547" d="M72 261V281H475V261H72Z" />
<glyph unicode="&#xae;" glyph-name="registered" horiz-adv-x="834" d="M417 -7Q339 -7 273 20T159 96T84 211T56 355Q56 432 83 498T159 612T273 687T417 715Q495 715 561 688T675 612T750 498T778 355Q778 277 751 211T675 97T561 21T417 -7ZM417 13Q489 13
551 37T659 107T731 215T757 355Q757 428 732 490T661 597T553 669T417 695Q344 695 282 669T174 598T103 490T77 355Q77 281 102 219T173 111T281 39T417 13ZM272 583H460Q488 583 512 571T553 539T580 494T590 443Q590 416 582 392T558 348T520 317T472 303L589
121H565L449 303H293V121H272V583ZM465 323Q491 323 510 332T543 358T563 397T570 443Q570 467 562 489T540 527T505 552T460 562H293V323H465Z" />
<glyph unicode="&#xaf;" glyph-name="overscore" horiz-adv-x="380" d="M50 686V706H330V686H50Z" />
<glyph unicode="&#xb0;" glyph-name="degree" horiz-adv-x="252" d="M57 655Q57 684 77 704T126 724Q155 724 175 704T195 655Q195 626 175 606T126 586Q97 586 77 606T57 655ZM126 704Q106 704 92 691T77 655Q77 635 91 621T126 606Q145 606 160 620T175 655Q175
677 161 690T126 704Z" />
<glyph unicode="&#xb1;" glyph-name="plusminus" horiz-adv-x="452" d="M76 85V105H376V85H76ZM376 365V345H236V195H216V345H76V365H216V515H236V365H376Z" />
<glyph unicode="&#xb2;" glyph-name="twosuperior" horiz-adv-x="370" d="M41 343Q41 417 74 456T164 516Q186 524 211 532T256 551T290 580T304 623Q304 640 297 656T276 684T241 704T191 712Q164 712 143 706T105 690T78 671T61 652L46 664Q47 666 56 676T84
699T129 721T193 731Q227 731 251 722T292 698T317 663T325 622Q325 592 310 573T273 540T226 519T179 503Q140 489 117 471T83 434T69 396T66 362H326V343H41Z" />
<glyph unicode="&#xb3;" glyph-name="threesuperior" horiz-adv-x="380" d="M190 338Q159 338 133 345T86 365T54 395T41 434L57 441Q58 424 68 409T97 383T139 364T190 357Q217 357 240 363T280 381T307 408T317 442Q317 482 276 505T168 529H146V547H168Q234
547 269 566T304 624Q304 663 270 688T182 713Q140 713 108 696T63 653L48 665Q63 695 99 713T182 731Q213 731 239 723T284 701T314 667T325 625Q325 558 236 538Q282 530 309 504T337 440Q337 418 326 399T294 367T248 346T190 338Z" />
<glyph unicode="&#xb4;" glyph-name="acute" horiz-adv-x="198" d="M66 645L50 657L114 730H148L66 645Z" />
<glyph unicode="&#xb5;" glyph-name="mu" horiz-adv-x="570" d="M88 519H108V228Q108 10 255 10Q292 10 328 23T394 60T446 117T481 189V519H501V40Q501 20 517 20V0Q506 0 503 2Q493 6 487 16T481 40V132Q447 66 386 28T255 -10Q146 -10 108 94V-212H88V519Z" />
<glyph unicode="&#xb6;" glyph-name="paragraph" horiz-adv-x="560" d="M37 479Q37 533 56 575T111 648T200 694T319 710H520V690H450V-80H430V248H339V-80H319V248Q253 249 201 265T113 310T57 382T37 479ZM57 479Q57 424 78 385T135 321T218 283T319 268V690Q191
690 124 635T57 479ZM430 690H339V268H430V690Z" />
<glyph unicode="&#xb7;" glyph-name="middot" horiz-adv-x="164" d="M72 250V333H92V250H72Z" />
<glyph unicode="&#xb8;" glyph-name="cedilla" horiz-adv-x="252" d="M33 -125Q48 -132 71 -137T120 -143Q178 -143 178 -105Q178 -84 165 -76T130 -67Q109 -67 86 -72T49 -83L103 11L121 0L88 -57Q98 -53 110 -52T130 -51Q198 -51 198 -105Q198 -135 177 -148T117
-162Q91 -162 67 -157T23 -143L33 -125Z" />
<glyph unicode="&#xb9;" glyph-name="onesuperior" horiz-adv-x="253" d="M230 361V342H49V361H132V705Q127 699 116 691T91 675T62 663T35 658V677Q51 677 68 685T99 703T122 721T132 731H152V361H230Z" />
<glyph unicode="&#xba;" glyph-name="ordmasculine" horiz-adv-x="452" d="M225 351Q188 351 156 365T101 404T64 461T50 529Q50 566 63 598T100 655T156 694T225 709Q262 709 294 695T351 656T388 599T402 529Q402 493 389 461T351 405T295 366T225 351ZM81 528Q81
497 92 470T123 423T169 391T225 379Q255 379 281 391T328 423T359 471T371 530Q371 561 360 588T328 636T282 668T225 680Q196 680 170 668T124 636T93 587T81 528Z" />
<glyph unicode="&#xbb;" glyph-name="guillemotright" horiz-adv-x="526" d="M476 250L239 80V102L457 259L239 415V437L476 268V250ZM306 250L69 80V102L287 259L69 415V437L306 268V250Z" />
<glyph unicode="&#xbc;" glyph-name="onequarter" horiz-adv-x="757" d="M641 0V110H408V127L647 383H661V129H716V110H661V0H641ZM436 129H641V348L436 129ZM243 361V342H62V361H145V705Q140 699 129 691T104 675T75 663T48 658V677Q64 677 81 685T112 703T135
721T145 731H165V361H243ZM105 11L663 711L679 699L121 -1L105 11Z" />
<glyph unicode="&#xbd;" glyph-name="onehalf" horiz-adv-x="805" d="M472 0Q472 74 505 113T595 173Q617 181 642 189T687 208T721 237T735 280Q735 297 728 313T707 341T672 361T622 369Q595 369 574 363T536 347T509 328T492 309L477 321Q478 323 487 333T515
356T560 378T624 388Q658 388 682 379T723 355T748 320T756 279Q756 249 741 230T704 197T657 176T610 160Q571 146 548 128T514 91T500 53T497 19H757V0H472ZM248 361V342H67V361H150V705Q145 699 134 691T109 675T80 663T53 658V677Q69 677 86 685T117 703T140
721T150 731H170V361H248ZM74 11L632 711L648 699L90 -1L74 11Z" />
<glyph unicode="&#xbe;" glyph-name="threequarters" horiz-adv-x="774" d="M652 0V110H419V127L658 383H672V129H727V110H672V0H652ZM447 129H652V348L447 129ZM197 338Q166 338 140 345T93 365T61 395T48 434L64 441Q65 424 75 409T104 383T146 364T197 357Q224
357 247 363T287 381T314 408T324 442Q324 482 283 505T175 529H153V547H175Q241 547 276 566T311 624Q311 663 277 688T189 713Q147 713 115 696T70 653L55 665Q70 695 106 713T189 731Q220 731 246 723T291 701T321 667T332 625Q332 558 243 538Q289 530 316
504T344 440Q344 418 333 399T301 367T255 346T197 338ZM140 11L698 711L714 699L156 -1L140 11Z" />
<glyph unicode="&#xbf;" glyph-name="questiondown" horiz-adv-x="464" d="M288 327Q288 279 282 248T264 195T236 162T202 140Q178 128 153 116T106 86T70 41T56 -29Q56 -72 70 -103T107 -154T160 -183T222 -193Q252 -193 281 -185T335 -162T380 -125T413 -76L431
-84Q417 -115 395 -139T344 -179T285 -204T223 -213Q187 -213 153 -201T93 -166T52 -107T36 -26Q36 19 50 48T88 97T139 130T194 159Q210 168 223 178T247 207T262 254T268 327H288ZM288 506V422H268V506H288Z" />
<glyph unicode="&#xc0;" glyph-name="Agrave" horiz-adv-x="683" d="M23 0L333 710H351L660 0H638L527 254H156L45 0H23ZM342 681L164 274H518L342 681ZM274 918H307L372 845L356 833L274 918Z" />
<glyph unicode="&#xc1;" glyph-name="Aacute" horiz-adv-x="683" d="M23 0L333 710H351L660 0H638L527 254H156L45 0H23ZM342 681L164 274H518L342 681ZM328 833L312 845L376 918H410L328 833Z" />
<glyph unicode="&#xc2;" glyph-name="Acircumflex" horiz-adv-x="683" d="M23 0L333 710H351L660 0H638L527 254H156L45 0H23ZM342 681L164 274H518L342 681ZM241 844L334 918H350L443 844L427 832L342 895L257 832L241 844Z" />
<glyph unicode="&#xc3;" glyph-name="Atilde" horiz-adv-x="683" d="M23 0L333 710H351L660 0H638L527 254H156L45 0H23ZM342 681L164 274H518L342 681ZM403 851Q381 851 365 857T334 870T307 883T278 889Q262 889 252 883T237 868T229 851T227 841H207Q207 843
209 854T218 877T240 898T280 908Q299 908 314 902T343 889T371 876T405 870Q426 870 437 877T455 892T462 908T464 918H484Q484 915 482 904T471 881T447 860T403 851Z" />
<glyph unicode="&#xc4;" glyph-name="Adieresis" horiz-adv-x="683" d="M23 0L333 710H351L660 0H638L527 254H156L45 0H23ZM342 681L164 274H518L342 681ZM274 841V918H294V841H274ZM390 841V918H410V841H390Z" />
<glyph unicode="&#xc5;" glyph-name="Aring" horiz-adv-x="683" d="M23 0L333 710H351L660 0H638L527 254H156L45 0H23ZM342 681L164 274H518L342 681ZM285 861Q285 885 301 901T342 918Q366 918 382 902T399 861Q399 837 383 821T342 804Q318 804 302 820T285
861ZM342 902Q325 902 313 891T301 861Q301 844 313 832T342 820Q357 820 370 831T383 861Q383 880 371 891T342 902Z" />
<glyph unicode="&#xc6;" glyph-name="AE" horiz-adv-x="999" d="M476 710H938V690H501V373H884V353H501V20H947V0H481V254H200L33 0H8L476 710ZM481 274V678L212 274H481Z" />
<glyph unicode="&#xc7;" glyph-name="Ccedilla" horiz-adv-x="703" d="M309 -125Q324 -132 347 -137T396 -143Q454 -143 454 -105Q454 -84 441 -76T406 -67Q385 -67 362 -72T325 -83L369 -5Q299 -2 241 30T141 114T76 230T53 360Q53 424 75 487T140 600T245 682T388
714Q483 714 549 671T647 559L628 553Q607 592 580 619T520 662T453 686T384 694Q310 694 252 665T154 587T94 479T73 357Q73 289 97 227T164 118T264 42T387 14Q422 14 459 23T530 50T594 96T645 164L664 159Q646 120 617 90T551 39T474 7T393 -6L364 -57Q374
-53 386 -52T406 -51Q474 -51 474 -105Q474 -135 453 -148T393 -162Q367 -162 343 -157T299 -143L309 -125Z" />
<glyph unicode="&#xc8;" glyph-name="Egrave" horiz-adv-x="619" d="M567 20V0H101V710H558V690H121V373H504V353H121V20H567ZM278 918H311L376 845L360 833L278 918Z" />
<glyph unicode="&#xc9;" glyph-name="Eacute" horiz-adv-x="619" d="M567 20V0H101V710H558V690H121V373H504V353H121V20H567ZM332 833L316 845L380 918H414L332 833Z" />
<glyph unicode="&#xca;" glyph-name="Ecircumflex" horiz-adv-x="619" d="M567 20V0H101V710H558V690H121V373H504V353H121V20H567ZM245 844L338 918H354L447 844L431 832L346 895L261 832L245 844Z" />
<glyph unicode="&#xcb;" glyph-name="Edieresis" horiz-adv-x="619" d="M567 20V0H101V710H558V690H121V373H504V353H121V20H567ZM278 841V918H298V841H278ZM394 841V918H414V841H394Z" />
<glyph unicode="&#xcc;" glyph-name="Igrave" horiz-adv-x="222" d="M101 0V709H121V0H101ZM43 918H76L141 845L125 833L43 918Z" />
<glyph unicode="&#xcd;" glyph-name="Iacute" horiz-adv-x="222" d="M101 0V709H121V0H101ZM97 833L81 845L145 918H179L97 833Z" />
<glyph unicode="&#xce;" glyph-name="Icircumflex" horiz-adv-x="222" d="M101 0V709H121V0H101ZM10 844L103 918H119L212 844L196 832L111 895L26 832L10 844Z" />
<glyph unicode="&#xcf;" glyph-name="Idieresis" horiz-adv-x="222" d="M101 0V709H121V0H101ZM43 841V918H63V841H43ZM159 841V918H179V841H159Z" />
<glyph unicode="&#xd0;" glyph-name="Eth" horiz-adv-x="724" d="M107 0V347H36V367H107V710H335Q419 710 481 682T585 606T647 494T668 356Q668 275 645 210T578 98T473 26T335 0H107ZM648 356Q648 429 628 490T567 595T469 665T335 690H127V367H319V347H127V20H335Q412
20 470 45T568 116T628 222T648 356Z" />
<glyph unicode="&#xd1;" glyph-name="Ntilde" horiz-adv-x="780" d="M121 671V0H101V710H116L659 29V709H679V0H656L121 671ZM456 851Q434 851 418 857T387 870T360 883T331 889Q315 889 305 883T290 868T282 851T280 841H260Q260 843 262 854T271 877T293 898T333
908Q352 908 367 902T396 889T424 876T458 870Q479 870 490 877T508 892T515 908T517 918H537Q537 915 535 904T524 881T500 860T456 851Z" />
<glyph unicode="&#xd2;" glyph-name="Ograve" horiz-adv-x="767" d="M384 -5Q310 -5 250 26T145 107T77 222T53 355Q53 426 78 491T148 606T253 685T384 715Q457 715 518 684T622 601T690 486T714 355Q714 283 689 218T619 104T514 25T384 -5ZM73 355Q73 289 96
228T161 119T259 43T384 15Q453 15 510 44T608 122T671 231T694 355Q694 421 671 482T605 591T507 667T384 695Q315 695 258 666T159 588T96 479T73 355ZM316 918H349L414 845L398 833L316 918Z" />
<glyph unicode="&#xd3;" glyph-name="Oacute" horiz-adv-x="767" d="M384 -5Q310 -5 250 26T145 107T77 222T53 355Q53 426 78 491T148 606T253 685T384 715Q457 715 518 684T622 601T690 486T714 355Q714 283 689 218T619 104T514 25T384 -5ZM73 355Q73 289 96
228T161 119T259 43T384 15Q453 15 510 44T608 122T671 231T694 355Q694 421 671 482T605 591T507 667T384 695Q315 695 258 666T159 588T96 479T73 355ZM370 833L354 845L418 918H452L370 833Z" />
<glyph unicode="&#xd4;" glyph-name="Ocircumflex" horiz-adv-x="767" d="M384 -5Q310 -5 250 26T145 107T77 222T53 355Q53 426 78 491T148 606T253 685T384 715Q457 715 518 684T622 601T690 486T714 355Q714 283 689 218T619 104T514 25T384 -5ZM73 355Q73
289 96 228T161 119T259 43T384 15Q453 15 510 44T608 122T671 231T694 355Q694 421 671 482T605 591T507 667T384 695Q315 695 258 666T159 588T96 479T73 355ZM283 844L376 918H392L485 844L469 832L384 895L299 832L283 844Z" />
<glyph unicode="&#xd5;" glyph-name="Otilde" horiz-adv-x="767" d="M384 -5Q310 -5 250 26T145 107T77 222T53 355Q53 426 78 491T148 606T253 685T384 715Q457 715 518 684T622 601T690 486T714 355Q714 283 689 218T619 104T514 25T384 -5ZM73 355Q73 289 96
228T161 119T259 43T384 15Q453 15 510 44T608 122T671 231T694 355Q694 421 671 482T605 591T507 667T384 695Q315 695 258 666T159 588T96 479T73 355ZM445 851Q423 851 407 857T376 870T349 883T320 889Q304 889 294 883T279 868T271 851T269 841H249Q249 843
251 854T260 877T282 898T322 908Q341 908 356 902T385 889T413 876T447 870Q468 870 479 877T497 892T504 908T506 918H526Q526 915 524 904T513 881T489 860T445 851Z" />
<glyph unicode="&#xd6;" glyph-name="Odieresis" horiz-adv-x="767" d="M384 -5Q310 -5 250 26T145 107T77 222T53 355Q53 426 78 491T148 606T253 685T384 715Q457 715 518 684T622 601T690 486T714 355Q714 283 689 218T619 104T514 25T384 -5ZM73 355Q73 289
96 228T161 119T259 43T384 15Q453 15 510 44T608 122T671 231T694 355Q694 421 671 482T605 591T507 667T384 695Q315 695 258 666T159 588T96 479T73 355ZM316 841V918H336V841H316ZM432 841V918H452V841H432Z" />
<glyph unicode="&#xd7;" glyph-name="multiply" horiz-adv-x="451" d="M375 135L360 121L225 256L90 121L76 136L210 270L75 406L90 420L225 285L361 421L375 406L239 270L375 135Z" />
<glyph unicode="&#xd8;" glyph-name="Oslash" horiz-adv-x="767" d="M624 710L581 642Q612 616 636 583T678 513T705 436T714 355Q714 283 689 218T619 104T514 25T384 -5Q332 -5 286 11T203 54L168 0H143L186 67Q123 118 88 194T53 355Q53 426 78 491T148 606T253
685T384 715Q435 715 480 700T563 656L598 710H624ZM694 355Q694 434 661 505T570 625L213 71Q249 45 292 30T384 15Q453 15 510 44T608 122T671 231T694 355ZM73 355Q73 275 106 204T196 84L552 639Q516 665 474 680T384 695Q315 695 258 666T159 588T96 479T73
355Z" />
<glyph unicode="&#xd9;" glyph-name="Ugrave" horiz-adv-x="761" d="M380 15Q460 15 512 45T595 123T638 232T651 355V710H671V355Q671 284 657 219T608 105T519 25T381 -5Q297 -5 241 26T152 108T104 223T90 355V710H110V355Q110 291 122 230T166 121T249 44T380
15ZM313 918H346L411 845L395 833L313 918Z" />
<glyph unicode="&#xda;" glyph-name="Uacute" horiz-adv-x="761" d="M380 15Q460 15 512 45T595 123T638 232T651 355V710H671V355Q671 284 657 219T608 105T519 25T381 -5Q297 -5 241 26T152 108T104 223T90 355V710H110V355Q110 291 122 230T166 121T249 44T380
15ZM367 833L351 845L415 918H449L367 833Z" />
<glyph unicode="&#xdb;" glyph-name="Ucircumflex" horiz-adv-x="761" d="M380 15Q460 15 512 45T595 123T638 232T651 355V710H671V355Q671 284 657 219T608 105T519 25T381 -5Q297 -5 241 26T152 108T104 223T90 355V710H110V355Q110 291 122 230T166 121T249
44T380 15ZM280 844L373 918H389L482 844L466 832L381 895L296 832L280 844Z" />
<glyph unicode="&#xdc;" glyph-name="Udieresis" horiz-adv-x="761" d="M380 15Q460 15 512 45T595 123T638 232T651 355V710H671V355Q671 284 657 219T608 105T519 25T381 -5Q297 -5 241 26T152 108T104 223T90 355V710H110V355Q110 291 122 230T166 121T249
44T380 15ZM313 841V918H333V841H313ZM429 841V918H449V841H429Z" />
<glyph unicode="&#xdd;" glyph-name="Yacute" horiz-adv-x="627" d="M39 710L313 298L588 710H611L323 275V0H303V277L16 710H39ZM299 833L283 845L347 918H381L299 833Z" />
<glyph unicode="&#xde;" glyph-name="Thorn" horiz-adv-x="606" d="M370 560Q413 560 450 542T513 493T555 424T570 345Q570 303 556 264T517 195T456 147T377 129H121V0H101V710H121V560H370ZM377 149Q417 149 449 166T504 211T538 274T550 345Q550 383 536 418T498
480T440 523T370 540H121V149H377Z" />
<glyph unicode="&#xdf;" glyph-name="germandbls" horiz-adv-x="546" d="M229 13Q350 15 414 64T479 202Q479 245 464 280T422 340T358 379T274 393H257V413H273Q306 413 334 423T383 453T415 497T427 552Q427 582 415 608T381 653T330 683T266 694Q191 694 147
644T103 509V0H83V509Q83 555 96 593T134 658T192 699T267 714Q305 714 338 702T395 669T433 619T447 557Q447 530 438 505T412 458T374 423T327 404Q410 387 454 335T499 203Q499 106 430 53T229 -6V13Z" />
<glyph unicode="&#xe0;" glyph-name="agrave" horiz-adv-x="525" d="M206 -10Q171 -10 140 2T87 36T51 87T38 149Q38 182 53 209T97 255T165 286T252 297Q297 297 343 290T426 268V327Q426 367 414 400T380 457T326 494T256 507Q218 507 175 491T88 443L76 459Q176
527 256 527Q299 527 334 513T394 473T432 410T446 327V40Q446 20 462 20V0Q451 0 448 2Q438 6 432 16T426 40V88Q390 41 332 16T206 -10ZM206 10Q273 10 328 35T411 102Q426 123 426 143V246Q346 277 252 277Q208 277 173 268T112 242T72 202T58 149Q58 120 69
95T101 50T148 21T206 10ZM188 730H221L286 657L270 645L188 730Z" />
<glyph unicode="&#xe1;" glyph-name="aacute" horiz-adv-x="525" d="M206 -10Q171 -10 140 2T87 36T51 87T38 149Q38 182 53 209T97 255T165 286T252 297Q297 297 343 290T426 268V327Q426 367 414 400T380 457T326 494T256 507Q218 507 175 491T88 443L76 459Q176
527 256 527Q299 527 334 513T394 473T432 410T446 327V40Q446 20 462 20V0Q451 0 448 2Q438 6 432 16T426 40V88Q390 41 332 16T206 -10ZM206 10Q273 10 328 35T411 102Q426 123 426 143V246Q346 277 252 277Q208 277 173 268T112 242T72 202T58 149Q58 120 69
95T101 50T148 21T206 10ZM242 645L226 657L290 730H324L242 645Z" />
<glyph unicode="&#xe2;" glyph-name="acircumflex" horiz-adv-x="525" d="M206 -10Q171 -10 140 2T87 36T51 87T38 149Q38 182 53 209T97 255T165 286T252 297Q297 297 343 290T426 268V327Q426 367 414 400T380 457T326 494T256 507Q218 507 175 491T88 443L76
459Q176 527 256 527Q299 527 334 513T394 473T432 410T446 327V40Q446 20 462 20V0Q451 0 448 2Q438 6 432 16T426 40V88Q390 41 332 16T206 -10ZM206 10Q273 10 328 35T411 102Q426 123 426 143V246Q346 277 252 277Q208 277 173 268T112 242T72 202T58 149Q58
120 69 95T101 50T148 21T206 10ZM155 656L248 730H264L357 656L341 644L256 707L171 644L155 656Z" />
<glyph unicode="&#xe3;" glyph-name="atilde" horiz-adv-x="525" d="M206 -10Q171 -10 140 2T87 36T51 87T38 149Q38 182 53 209T97 255T165 286T252 297Q297 297 343 290T426 268V327Q426 367 414 400T380 457T326 494T256 507Q218 507 175 491T88 443L76 459Q176
527 256 527Q299 527 334 513T394 473T432 410T446 327V40Q446 20 462 20V0Q451 0 448 2Q438 6 432 16T426 40V88Q390 41 332 16T206 -10ZM206 10Q273 10 328 35T411 102Q426 123 426 143V246Q346 277 252 277Q208 277 173 268T112 242T72 202T58 149Q58 120 69
95T101 50T148 21T206 10ZM317 663Q295 663 279 669T248 682T221 695T192 701Q176 701 166 695T151 680T143 663T141 653H121Q121 655 123 666T132 689T154 710T194 720Q213 720 228 714T257 701T285 688T319 682Q340 682 351 689T369 704T376 720T378 730H398Q398
727 396 716T385 693T361 672T317 663Z" />
<glyph unicode="&#xe4;" glyph-name="adieresis" horiz-adv-x="525" d="M206 -10Q171 -10 140 2T87 36T51 87T38 149Q38 182 53 209T97 255T165 286T252 297Q297 297 343 290T426 268V327Q426 367 414 400T380 457T326 494T256 507Q218 507 175 491T88 443L76
459Q176 527 256 527Q299 527 334 513T394 473T432 410T446 327V40Q446 20 462 20V0Q451 0 448 2Q438 6 432 16T426 40V88Q390 41 332 16T206 -10ZM206 10Q273 10 328 35T411 102Q426 123 426 143V246Q346 277 252 277Q208 277 173 268T112 242T72 202T58 149Q58
120 69 95T101 50T148 21T206 10ZM188 653V730H208V653H188ZM304 653V730H324V653H304Z" />
<glyph unicode="&#xe5;" glyph-name="aring" horiz-adv-x="525" d="M206 -10Q171 -10 140 2T87 36T51 87T38 149Q38 182 53 209T97 255T165 286T252 297Q297 297 343 290T426 268V327Q426 367 414 400T380 457T326 494T256 507Q218 507 175 491T88 443L76 459Q176
527 256 527Q299 527 334 513T394 473T432 410T446 327V40Q446 20 462 20V0Q451 0 448 2Q438 6 432 16T426 40V88Q390 41 332 16T206 -10ZM206 10Q273 10 328 35T411 102Q426 123 426 143V246Q346 277 252 277Q208 277 173 268T112 242T72 202T58 149Q58 120 69
95T101 50T148 21T206 10ZM199 673Q199 697 215 713T256 730Q280 730 296 714T313 673Q313 649 297 633T256 616Q232 616 216 632T199 673ZM256 714Q239 714 227 703T215 673Q215 656 227 644T256 632Q271 632 284 643T297 673Q297 692 285 703T256 714Z" />
<glyph unicode="&#xe6;" glyph-name="ae" horiz-adv-x="928" d="M206 -10Q171 -10 140 2T87 36T51 87T38 149Q38 182 53 209T97 255T165 286T252 297Q288 297 326 292T397 277Q400 328 420 376Q407 436 364 471T256 507Q218 507 175 491T88 443L76 459Q176 527
256 527Q323 527 369 495T434 403Q466 459 521 493T642 527Q694 527 739 506T818 449T872 364T892 259V248H417Q421 198 440 155T491 79T562 29T648 10Q678 10 706 18T760 40T804 75T834 119L853 114Q842 87 822 65T774 26T714 0T647 -10Q582 -10 528 23T440 111Q424
79 398 56T339 19T273 -3T206 -10ZM206 10Q273 10 328 35T411 102Q423 120 426 137Q398 192 397 256Q328 277 252 277Q208 277 173 268T112 242T72 202T58 149Q58 120 69 95T101 50T148 21T206 10ZM871 268Q868 320 849 364T800 439T729 489T643 507Q597 507 557
489T487 439T438 363T417 268H871Z" />
<glyph unicode="&#xe7;" glyph-name="ccedilla" horiz-adv-x="541" d="M223 -125Q238 -132 261 -137T310 -143Q368 -143 368 -105Q368 -84 355 -76T320 -67Q299 -67 276 -72T239 -83L281 -9Q233 -6 191 17T117 76T67 160T48 262Q48 318 67 366T120 450T199 506T298
527Q364 527 415 497T493 411L473 404Q447 452 400 479T295 507Q247 507 206 488T134 436T86 358T68 262Q68 211 86 165T135 85T208 30T296 10Q326 10 356 19T412 43T456 78T480 119L500 113Q491 87 472 65T427 27T370 1T305 -10L278 -57Q288 -53 300 -52T320 -51Q388
-51 388 -105Q388 -135 367 -148T307 -162Q281 -162 257 -157T213 -143L223 -125Z" />
<glyph unicode="&#xe8;" glyph-name="egrave" horiz-adv-x="578" d="M297 -10Q246 -10 201 11T121 70T67 157T47 263Q47 318 66 366T118 450T196 506T292 527Q344 527 389 506T468 449T522 364T542 259V248H67Q71 198 90 155T141 79T212 29T298 10Q328 10 356
18T410 40T454 75T484 119L503 114Q492 87 472 65T424 26T364 0T297 -10ZM521 268Q518 320 499 364T450 439T379 489T293 507Q247 507 207 489T137 439T88 363T67 268H521ZM225 730H258L323 657L307 645L225 730Z" />
<glyph unicode="&#xe9;" glyph-name="eacute" horiz-adv-x="578" d="M297 -10Q246 -10 201 11T121 70T67 157T47 263Q47 318 66 366T118 450T196 506T292 527Q344 527 389 506T468 449T522 364T542 259V248H67Q71 198 90 155T141 79T212 29T298 10Q328 10 356
18T410 40T454 75T484 119L503 114Q492 87 472 65T424 26T364 0T297 -10ZM521 268Q518 320 499 364T450 439T379 489T293 507Q247 507 207 489T137 439T88 363T67 268H521ZM279 645L263 657L327 730H361L279 645Z" />
<glyph unicode="&#xea;" glyph-name="ecircumflex" horiz-adv-x="578" d="M297 -10Q246 -10 201 11T121 70T67 157T47 263Q47 318 66 366T118 450T196 506T292 527Q344 527 389 506T468 449T522 364T542 259V248H67Q71 198 90 155T141 79T212 29T298 10Q328 10
356 18T410 40T454 75T484 119L503 114Q492 87 472 65T424 26T364 0T297 -10ZM521 268Q518 320 499 364T450 439T379 489T293 507Q247 507 207 489T137 439T88 363T67 268H521ZM192 656L285 730H301L394 656L378 644L293 707L208 644L192 656Z" />
<glyph unicode="&#xeb;" glyph-name="edieresis" horiz-adv-x="578" d="M297 -10Q246 -10 201 11T121 70T67 157T47 263Q47 318 66 366T118 450T196 506T292 527Q344 527 389 506T468 449T522 364T542 259V248H67Q71 198 90 155T141 79T212 29T298 10Q328 10 356
18T410 40T454 75T484 119L503 114Q492 87 472 65T424 26T364 0T297 -10ZM521 268Q518 320 499 364T450 439T379 489T293 507Q247 507 207 489T137 439T88 363T67 268H521ZM225 653V730H245V653H225ZM341 653V730H361V653H341Z" />
<glyph unicode="&#xec;" glyph-name="igrave" horiz-adv-x="186" d="M83 0V519H103V0H83ZM25 730H58L123 657L107 645L25 730Z" />
<glyph unicode="&#xed;" glyph-name="iacute" horiz-adv-x="186" d="M83 0V519H103V0H83ZM79 645L63 657L127 730H161L79 645Z" />
<glyph unicode="&#xee;" glyph-name="icircumflex" horiz-adv-x="186" d="M83 0V519H103V0H83ZM-8 656L85 730H101L194 656L178 644L93 707L8 644L-8 656Z" />
<glyph unicode="&#xef;" glyph-name="idieresis" horiz-adv-x="186" d="M83 0V519H103V0H83ZM25 653V730H45V653H25ZM141 653V730H161V653H141Z" />
<glyph unicode="&#xf0;" glyph-name="eth" horiz-adv-x="595" d="M472 699L379 638Q433 591 465 544T514 447T537 348T543 246Q543 194 524 148T471 66T392 11T296 -10Q245 -10 200 9T122 62T69 139T49 232Q49 281 68 325T122 403T201 455T296 475Q335 475 370
465T435 435T487 389T523 330Q519 366 511 402T484 476T437 552T365 628L241 547L231 561L351 640Q297 686 221 730H250Q316 691 365 649L462 713L472 699ZM69 230Q69 185 87 145T135 75T207 28T295 10Q341 10 382 29T455 80T505 156T523 247Q523 289 505 327T456
393T384 438T296 455Q250 455 209 437T136 388T87 317T69 230Z" />
<glyph unicode="&#xf1;" glyph-name="ntilde" horiz-adv-x="563" d="M486 0H466V289Q466 403 435 455T333 507Q295 507 259 494T191 456T137 399T103 328V0H83V519H103V385Q119 416 144 442T199 487T263 516T332 527Q412 527 449 470T486 289V0ZM340 663Q318 663
302 669T271 682T244 695T215 701Q199 701 189 695T174 680T166 663T164 653H144Q144 655 146 666T155 689T177 710T217 720Q236 720 251 714T280 701T308 688T342 682Q363 682 374 689T392 704T399 720T401 730H421Q421 727 419 716T408 693T384 672T340 663Z"
/>
<glyph unicode="&#xf2;" glyph-name="ograve" horiz-adv-x="588" d="M294 -10Q243 -10 198 11T120 69T67 155T47 258Q47 313 66 361T120 447T199 505T294 527Q344 527 389 506T467 447T521 362T541 258Q541 204 522 155T469 70T390 12T294 -10ZM67 256Q67 206
85 161T133 83T205 30T293 10Q339 10 380 30T453 84T503 163T521 259Q521 309 503 354T454 433T382 487T294 507Q248 507 207 487T134 433T85 353T67 256ZM226 730H259L324 657L308 645L226 730Z" />
<glyph unicode="&#xf3;" glyph-name="oacute" horiz-adv-x="588" d="M294 -10Q243 -10 198 11T120 69T67 155T47 258Q47 313 66 361T120 447T199 505T294 527Q344 527 389 506T467 447T521 362T541 258Q541 204 522 155T469 70T390 12T294 -10ZM67 256Q67 206
85 161T133 83T205 30T293 10Q339 10 380 30T453 84T503 163T521 259Q521 309 503 354T454 433T382 487T294 507Q248 507 207 487T134 433T85 353T67 256ZM280 645L264 657L328 730H362L280 645Z" />
<glyph unicode="&#xf4;" glyph-name="ocircumflex" horiz-adv-x="588" d="M294 -10Q243 -10 198 11T120 69T67 155T47 258Q47 313 66 361T120 447T199 505T294 527Q344 527 389 506T467 447T521 362T541 258Q541 204 522 155T469 70T390 12T294 -10ZM67 256Q67
206 85 161T133 83T205 30T293 10Q339 10 380 30T453 84T503 163T521 259Q521 309 503 354T454 433T382 487T294 507Q248 507 207 487T134 433T85 353T67 256ZM193 656L286 730H302L395 656L379 644L294 707L209 644L193 656Z" />
<glyph unicode="&#xf5;" glyph-name="otilde" horiz-adv-x="588" d="M294 -10Q243 -10 198 11T120 69T67 155T47 258Q47 313 66 361T120 447T199 505T294 527Q344 527 389 506T467 447T521 362T541 258Q541 204 522 155T469 70T390 12T294 -10ZM67 256Q67 206
85 161T133 83T205 30T293 10Q339 10 380 30T453 84T503 163T521 259Q521 309 503 354T454 433T382 487T294 507Q248 507 207 487T134 433T85 353T67 256ZM355 663Q333 663 317 669T286 682T259 695T230 701Q214 701 204 695T189 680T181 663T179 653H159Q159 655
161 666T170 689T192 710T232 720Q251 720 266 714T295 701T323 688T357 682Q378 682 389 689T407 704T414 720T416 730H436Q436 727 434 716T423 693T399 672T355 663Z" />
<glyph unicode="&#xf6;" glyph-name="odieresis" horiz-adv-x="588" d="M294 -10Q243 -10 198 11T120 69T67 155T47 258Q47 313 66 361T120 447T199 505T294 527Q344 527 389 506T467 447T521 362T541 258Q541 204 522 155T469 70T390 12T294 -10ZM67 256Q67 206
85 161T133 83T205 30T293 10Q339 10 380 30T453 84T503 163T521 259Q521 309 503 354T454 433T382 487T294 507Q248 507 207 487T134 433T85 353T67 256ZM226 653V730H246V653H226ZM342 653V730H362V653H342Z" />
<glyph unicode="&#xf7;" glyph-name="divide" horiz-adv-x="555" d="M267 385V449H287V385H267ZM267 92V156H287V92H267ZM76 261V281H479V261H76Z" />
<glyph unicode="&#xf8;" glyph-name="oslash" horiz-adv-x="588" d="M149 41Q102 79 75 135T47 258Q47 313 66 361T120 447T199 505T294 527Q329 527 361 517T421 487L441 519H467L439 474Q485 436 513 380T541 258Q541 204 522 155T469 70T390 12T294 -10Q259
-10 227 0T166 29L149 0H124L149 41ZM67 256Q67 196 92 144T159 58L411 470Q385 487 356 497T294 507Q248 507 207 487T134 433T85 353T67 256ZM293 10Q339 10 380 30T453 84T503 163T521 259Q521 319 496 370T429 456L177 46Q230 10 293 10Z" />
<glyph unicode="&#xf9;" glyph-name="ugrave" horiz-adv-x="574" d="M244 -10Q77 -10 77 228V519H97V228Q97 10 244 10Q281 10 317 23T383 60T435 117T470 189V519H490V40Q490 20 506 20V0Q495 0 492 2Q482 6 476 16T470 40V132Q436 66 375 28T244 -10ZM213 730H246L311
657L295 645L213 730Z" />
<glyph unicode="&#xfa;" glyph-name="uacute" horiz-adv-x="574" d="M244 -10Q77 -10 77 228V519H97V228Q97 10 244 10Q281 10 317 23T383 60T435 117T470 189V519H490V40Q490 20 506 20V0Q495 0 492 2Q482 6 476 16T470 40V132Q436 66 375 28T244 -10ZM267 645L251
657L315 730H349L267 645Z" />
<glyph unicode="&#xfb;" glyph-name="ucircumflex" horiz-adv-x="574" d="M244 -10Q77 -10 77 228V519H97V228Q97 10 244 10Q281 10 317 23T383 60T435 117T470 189V519H490V40Q490 20 506 20V0Q495 0 492 2Q482 6 476 16T470 40V132Q436 66 375 28T244 -10ZM180
656L273 730H289L382 656L366 644L281 707L196 644L180 656Z" />
<glyph unicode="&#xfc;" glyph-name="udieresis" horiz-adv-x="574" d="M244 -10Q77 -10 77 228V519H97V228Q97 10 244 10Q281 10 317 23T383 60T435 117T470 189V519H490V40Q490 20 506 20V0Q495 0 492 2Q482 6 476 16T470 40V132Q436 66 375 28T244 -10ZM213
653V730H233V653H213ZM329 653V730H349V653H329Z" />
<glyph unicode="&#xfd;" glyph-name="yacute" horiz-adv-x="541" d="M129 -203Q146 -203 159 -201T176 -193Q177 -191 181 -183T195 -154T221 -96T263 0L22 519H44L273 25L490 519H512L203 -186Q191 -214 170 -218Q150 -223 129 -223V-203ZM259 645L243 657L307
730H341L259 645Z" />
<glyph unicode="&#xfe;" glyph-name="thorn" horiz-adv-x="603" d="M556 258Q554 205 535 157T483 71T404 12T306 -10Q275 -10 246 -1T190 24T141 61T103 108V-213H83V710H103V398Q143 454 195 490T315 527Q372 527 417 503T492 441T539 354T556 258ZM536 258Q536
306 520 351T475 430T405 486T315 507Q278 507 246 495T187 461T139 413T103 356V169Q103 137 123 108T174 58T240 23T306 10Q356 10 398 31T471 88T519 167T536 258Z" />
<glyph unicode="&#xff;" glyph-name="ydieresis" horiz-adv-x="541" d="M129 -203Q146 -203 159 -201T176 -193Q177 -191 181 -183T195 -154T221 -96T263 0L22 519H44L273 25L490 519H512L203 -186Q191 -214 170 -218Q150 -223 129 -223V-203ZM205 653V730H225V653H205ZM321
653V730H341V653H321Z" />
<glyph unicode="&#x2013;" glyph-name="endash" horiz-adv-x="547" d="M72 261V281H475V261H72Z" />
<glyph unicode="&#x2014;" glyph-name="emdash" horiz-adv-x="883" d="M72 261V281H811V261H72Z" />
<glyph unicode="&#x2018;" glyph-name="quoteleft" horiz-adv-x="166" d="M99 583Q66 583 66 618V730H86V616Q86 603 99 603V583Z" />
<glyph unicode="&#x2019;" glyph-name="quoteright" horiz-adv-x="164" d="M59 730Q92 730 92 695V583H72V697Q72 710 59 710V730Z" />
<glyph unicode="&#x201a;" glyph-name="quotesinglbase" horiz-adv-x="182" d="M71 -13Q84 -13 84 0V64H104V2Q104 -33 71 -33V-13Z" />
<glyph unicode="&#x201c;" glyph-name="quotedblleft" horiz-adv-x="246" d="M99 583Q66 583 66 618V730H86V616Q86 603 99 603V583ZM179 583Q146 583 146 618V730H166V616Q166 603 179 603V583Z" />
<glyph unicode="&#x201d;" glyph-name="quotedblright" horiz-adv-x="244" d="M59 730Q92 730 92 695V583H72V697Q72 710 59 710V730ZM139 730Q172 730 172 695V583H152V697Q152 710 139 710V730Z" />
<glyph unicode="&#x201e;" glyph-name="quotedblbase" horiz-adv-x="252" d="M71 -13Q84 -13 84 0V64H104V2Q104 -33 71 -33V-13ZM141 -13Q154 -13 154 0V64H174V2Q174 -33 141 -33V-13Z" />
<glyph unicode="&#x2022;" glyph-name="bullet" horiz-adv-x="349" d="M253 343Q253 310 231 287T175 264Q143 264 120 287T96 343Q96 359 102 373T119 397T144 414T175 421Q208 421 230 398T253 343Z" />
<glyph unicode="&#x2039;" glyph-name="guilsinglleft" horiz-adv-x="356" d="M50 268L287 437V415L69 259L287 102V80L50 250V268Z" />
<glyph unicode="&#x203a;" glyph-name="guilsinglright" horiz-adv-x="356" d="M306 250L69 80V102L287 259L69 415V437L306 268V250Z" />
</font>
</defs>
</svg>
